Our friends

How Its Made S14E01 Mini GP Motorcycles - Fig Cookies - Tool Boxes - Pipe Bends avi torrent

Torrent info

Date 2010-03-09 18:39:22
Category Series/TV Shows
Hash 03ef2d7ea6c3b9e862b5da81114b48c77031ec03
Seeds / Leechs -1 / -1 refresh
Full size 174 MB
Tracker http://tracker.openbittorrent.com/scrape
Tags made s14e01 mini motorcycles cookies tool boxes pipe bends

Related torrents

Tool - 10000 Days [2006] [Pop]
Star Trek Remastered - 010 - 1x07 - What Are Little Girls Made O 4121702 TPB
Bongo Flava - Tanzanian hip-hop made BEFORE 2007
Talamasca And Friends - Made In Trance-2004-MYCEL [Psytrance]

Torrent's content info

How Its Made S14E01 Mini GP Motorcycles - Fig Cookies - Tool Boxes - Pipe Bends.avi

How Its Made S14E01 Mini GP Motorcycles - Fig Cookies - Tool Boxes - Pipe Bends avi screenshot
  • Screenshot 1
  • Screenshot 2
  • Screenshot 3
  • Screenshot 4
  • Screenshot 5
  • Screenshot 6
  • Screenshot 7
  • Screenshot 8
  • Screenshot 9

Duration: 00:20:43.24, start: 0.000000, bitrate: 1176 kb/s
Stream #0.0: Video: mpeg4, yuv420p, 608x352 [PAR 1:1 DAR 19:11], 29.97 tb(r)
Stream #0.1: Audio: mp3, 32000 Hz, stereo, s16, 112 kb/s

Check the movie's sound/language:

Contents of download:

174 megabyte in 1 files
How Its Made S14E01 Mini GP Motorcycles - Fig Cookies - Tool Boxes - Pipe Bends avi
  • How Its Made S14E01 Mini GP Motorcycles - Fig Cookies - Tool Boxes - Pipe Bends.avi (174 MB)

Comments:


Add report or comment (250 words maximum)

I'd like:  
Type text from captcha: