Our friends

Monty Python - 1x01 Wither Canada avi torrent

Torrent info

Date 2010-03-10 18:34:30
Category Series/TV Shows
Hash fad92a88f80dd1a308b818e5406812a103868750
Seeds / Leechs -1 / -1 refresh
Full size 223 MB
Tracker http://tracker.openbittorrent.com/scrape
Tags monty python 1x01 wither canada
Download – Monty Python - 1x01 Wither Canada avi Download direct – no client needed

Related torrents

Dead Parrot Society - The Best of British Comedy (Monty Python)
Monty Python's Spamalot [Original Broadway Cast Recording] zip
Monty Python Sings (>256K) YeOR
Another Monty Python Record (1971)

Torrent's content info

Monty Python - 1x01 Wither Canada.avi

Monty Python - 1x01 Wither Canada avi screenshot
  • Screenshot 1
  • Screenshot 2
  • Screenshot 3
  • Screenshot 4
  • Screenshot 5
  • Screenshot 6
  • Screenshot 7
  • Screenshot 8
  • Screenshot 9

Duration: 00:31:19.24, start: 0.000000, bitrate: 996 kb/s
Stream #0.0: Video: mpeg4, yuv420p, 640x446 [PAR 1:1 DAR 320:223], 29.97 tb(r)
Stream #0.1: Audio: mp3, 48000 Hz, stereo, s16, 256 kb/s

Check the movie's sound/language:

Contents of download:

223 megabyte in 1 files
Monty Python - 1x01 Wither Canada avi
  • Monty Python - 1x01 Wither Canada.avi (223 MB)

Comments:


Add report or comment (250 words maximum)

I'd like:  
Type text from captcha: