Our friends

Ninja Scroll DVDRip H 264[10th Ann Ed-WS] Ag Ro Ni avi torrent

Torrent info

Date 2010-03-12 18:32:51
Category Anime
Hash 3c0bf24f20c92b2777390037a14b6922f11aa604
Seeds / Leechs -1 / -1 refresh
Full size 918 MB
Tracker http://9.rarbg.com:2710/scrape
Tags ninja scroll dvdrip 10th

Related torrents

Mask Of The Ninja (2008 )[dvdrip]
REQ: Ninja Scroll
Ниндзя / Ninja (2009) DVDRip {russian}
Ninja 2009 DvDrip NLsub code kako

Torrent's content info

Ninja.Scroll.DVDRip.H.264[10th.Ann.Ed-WS].Ag.Ro.Ni.avi

Ninja Scroll DVDRip H 264[10th Ann Ed-WS] Ag Ro Ni avi screenshot
  • Screenshot 1
  • Screenshot 2
  • Screenshot 3
  • Screenshot 4
  • Screenshot 5
  • Screenshot 6
  • Screenshot 7
  • Screenshot 8
  • Screenshot 9

Duration: 01:31:16.87, start: 0.000000, bitrate: 1406 kb/s
Stream #0.0: Video: h264, yuv420p, 852x480, 29.97 tb(r)
Stream #0.1: Audio: mp3, 44100 Hz, stereo, s16, 192 kb/s

Check the movie's sound/language:

Contents of download:

918 megabyte in 1 files
Ninja Scroll DVDRip H 264[10th Ann Ed-WS] Ag Ro Ni avi
  • Ninja.Scroll.DVDRip.H.264[10th.Ann.Ed-WS].Ag.Ro.Ni.avi (918 MB)

Comments:


Add report or comment (250 words maximum)

I'd like:  
Type text from captcha: