Our friends

Headlights - Kill Them With Kindness (320kbps MP3) torrent

Torrent info

Date 2010-03-14 00:28:29
Category Music
Hash f07059d60e3b4ffef1a68db112512c176718ba2b
Seeds / Leechs -1 / -1 refresh
Full size 98 MB
Tracker http://tracker.openbittorrent.com/scrape
Tags headlights kill them with kindness 320kbps

Related torrents

THE SHINY DARKS - At War With The World EP with bonus Material 320kbps
[2007] Helloween - Gambling With The Devil [+Cov][320kbps][DeadPoetRIP]@H33T com
Spoon - Kill The Moonlight (2002) 320kbps
Hugh Laurie - Let Them Talk [MP3 320kbps][Nautilus-BT]

Torrent's content info

20 seconds audio samples

01 Your Old Street_sample.mp3
Audio file info Duration: 00:06:06.62, start: 0.000000, bitrate: 320 kb/s
Stream #0.0: Audio: mp3, 44100 Hz, stereo, s16, 320 kb/s
12 Hi-Ya!_sample.mp3
Audio file info Duration: 00:02:21.37, start: 0.000000, bitrate: 320 kb/s
Stream #0.0: Audio: mp3, 44100 Hz, stereo, s16, 320 kb/s
10 Struggle With Numbers_sample.mp3
Audio file info Duration: 00:01:27.37, start: 0.000000, bitrate: 321 kb/s
Stream #0.0: Audio: mp3, 44100 Hz, stereo, s16, 320 kb/s
07 The Midwest Is The Best_sample.mp3
Audio file info Duration: 00:00:18.44, start: 0.000000, bitrate: 325 kb/s
Stream #0.0: Audio: mp3, 44100 Hz, stereo, s16, 320 kb/s

Contents of download:

98 megabyte in 14 files
Headlights - Kill Them With Kindness (320kbps MP3)
  • Kill Them With Kindness/01 Your Old Street.mp3 (14 MB)
  • Kill Them With Kindness/03 Put Us Back Together Right.mp3 (10 MB)
  • Kill Them With Kindness/04 Pity City.mp3 (8.7 MB)
  • Kill Them With Kindness/11 Words Make You Tired.mp3 (8.7 MB)
  • Kill Them With Kindness/09 Lullabies.mp3 (8.6 MB)
  • Kill Them With Kindness/05 Songy Darko.mp3 (8.5 MB)
  • Kill Them With Kindness/13 Signs Point To Yes (But Outlook N.mp3 (8.4 MB)
  • Kill Them With Kindness/06 Owl Eyes.mp3 (6.5 MB)
  • Kill Them With Kindness/02 TV.mp3 (6 MB)
  • Kill Them With Kindness/14 I Love, You Laugh.mp3 (5.5 MB)
  • Kill Them With Kindness/12 Hi-Ya!.mp3 (5.4 MB)
  • Kill Them With Kindness/08 Lions.mp3 (4.1 MB)
  • Kill Them With Kindness/10 Struggle With Numbers.mp3 (3.3 MB)
  • Kill Them With Kindness/07 The Midwest Is The Best.mp3 (0.7 MB)

Comments:


Add report or comment (250 words maximum)

I'd like:  
Type text from captcha: