Our friends

Boney M-Let it all be music The Party Album.2CDs torrent

Torrent info

Date 2010-03-14 18:28:51
Category Music
Hash 62b5e0364cb035f99b327fffd86b30c1e78383b0
Seeds / Leechs -1 / -1 refresh
Full size 212 MB
Tracker http://tracker.publicbt.com/scrape
Tags boney music party album 2cds

Related torrents

The New Years Eve Party Album www the sin bin co uk 3952639 TPB
VA - The Classical Album 2CDs (2009) WwW Mixermusic net
Slade - Party Album
VA - Cadena 100 Love Album 2CDs (2009) Pop LanzamientosMp3 es

Torrent's content info

CD 2.rar

  • CD 2/201_boney_m._-_felicidad_(margherita).mp3 (6.3 MB)
  • CD 2/213_boney_m._-_my_friend_jack.mp3 (6.5 MB)
  • CD 2/218_boney_m._- El Lute.mp3 (5.5 MB)
  • CD 2/202_boney_m._-_happy_song.mp3 (6 MB)
  • CD 2/208_boney_m._-_got_cha_loco.mp3 (4.9 MB)
  • CD 2/216_boney_m._-_exodus_(noahs_ark_2001).mp3 (6.4 MB)
  • CD 2/210_boney_m._-_bang_bang_lulu.mp3 (4.9 MB)
  • CD 2/209_boney_m._-_barbarella_fortuneteller.mp3 (4 MB)
  • CD 2/217_boney_m._-_kalimba_de_luna_-_instrumental_version.mp3 (8.9 MB)
  • CD 2/211_boney_m._-_african_moon.mp3 (5.8 MB)
  • CD 2/206_boney_m._-_malaika.mp3 (6.9 MB)
  • CD 2/Boney M-Trasera.jpg (0.5 MB)
  • CD 2/215_boney_m._-_the_alibama.mp3 (4.4 MB)
  • CD 2/214_boney_m._-_sample_city.mp3 (5.1 MB)
  • CD 2/203_boney_m._-_kalimba_de_luna.mp3 (6.3 MB)
  • CD 2/Boney M. - Let it All Be Music (the Party Album) [2009] - Pop.txt (3.1 KB)
  • CD 2/205_boney_m._-_going_back_west.mp3 (5.9 MB)
  • CD 2/207_boney_m._-_i_see_a_boat_on_the_river.mp3 (6.5 MB)
  • CD 2/204_boney_m._-_dreadlock_holiday.mp3 (6.7 MB)
  • CD 2/212_boney_m._-_young_free_and_single.mp3 (6 MB)

CD 1.rar

  • CD 1/113_boney_m._-_ribbons_of_blue.mp3 (5.7 MB)
  • CD 1/112_boney_m._-_painter_man.mp3 (4.4 MB)
  • CD 1/109_boney_m._-_brown_girl_in_the_ring.mp3 (5.6 MB)
  • CD 1/106_boney_m._-_a_woman_can_change_a_man.mp3 (4.8 MB)
  • CD 1/104_boney_m._-_daddy_cool.mp3 (4.8 MB)
  • CD 1/107_boney_m._-_rivers_of_babylon.mp3 (5.9 MB)
  • CD 1/Boney M-Frontal.jpg (0.1 MB)
  • CD 1/103_boney_m._-_hooray_hooray_it_s_a_holi-holiday.mp3 (5.4 MB)
  • CD 1/118_boney_m._-_rasputin_(maxi_version).mp3 (10 MB)
  • CD 1/108_boney_m._-_bahama_mama_(long_version).mp3 (7.2 MB)
  • CD 1/114_boney_m._-_sunny.mp3 (5.6 MB)
  • CD 1/117_boney_m._-_silent_lover.mp3 (5.8 MB)
  • CD 1/110_boney_m._-_ma_baker.mp3 (6.3 MB)
  • CD 1/105_boney_m._-_belfast.mp3 (4.8 MB)
  • CD 1/116_boney_m._-_bye_bye_bluebird.mp3 (6.6 MB)
  • CD 1/115_boney_m._-_plantation_boy.mp3 (6.1 MB)
  • CD 1/101_boney_m._-_let_it_all_be_music.mp3 (7.1 MB)
  • CD 1/102_boney_m._-_gotta_go_home.mp3 (6.4 MB)
  • CD 1/Descargado de FanCluBT.com.txt (0.2 KB)
  • CD 1/111_boney_m._-_king_of_the_road.mp3 (3.6 MB)

20 seconds audio samples

218_boney_m._- El Lute_sample.mp3
Audio file info Duration: 00:03:59.34, start: 0.000000, bitrate: 192 kb/s
Stream #0.0: Audio: mp3, 44100 Hz, stereo, s16, 192 kb/s
201_boney_m._-_felicidad_(margherita)_sample.mp3
Audio file info Duration: 00:04:34.37, start: 0.000000, bitrate: 192 kb/s
Stream #0.0: Audio: mp3, 44100 Hz, stereo, s16, 192 kb/s
213_boney_m._-_my_friend_jack_sample.mp3
Audio file info Duration: 00:04:41.97, start: 0.000000, bitrate: 192 kb/s
Stream #0.0: Audio: mp3, 44100 Hz, stereo, s16, 192 kb/s
202_boney_m._-_happy_song_sample.mp3
Audio file info Duration: 00:04:20.74, start: 0.000000, bitrate: 191 kb/s
Stream #0.0: Audio: mp3, 44100 Hz, stereo, s16, 192 kb/s

Text sample Text sample from Boney M. - Let it All Be Music (the Party Album) [2009] - Pop.txt

Boney M. - Let it All Be Music the Party Album.2009

El recopilatorio de los exitos de Boney M ,mas completo que se a editado hasta el momento.

TRACKLiST:

CD1

[01] Let it All Be Music
[02] Gotta Go Home
[03] Hooray! Hooray! It' S A Holi-Holiday
[04] Daddy Cool
[05] Belfast
[06] A Woman Can Change A Man
[07] Rivers of Babylon
[08] Bahama Mama (Long Version)
[09] Brown Girl in the Ring
[10] Ma Baker
[11] King...

Read full text


Text sample Text sample from Descargado de FanCluBT.com.txt

Descargado de FanCluBT.com

Recuerda que FanCluBT esta en contra
de la pirateria, asi que si te ha
gustado la descarga, compra el original

Un saludo de FCBT




Contents of download:

212 megabyte in 2 files
Boney M-Let it all be music The Party Album.2CDs
  • Boney M-Let it all be music The Party Album.2CDs/CD 1.rar (106 MB)
  • Boney M-Let it all be music The Party Album.2CDs/CD 2.rar (106 MB)

Comments:


Add report or comment (250 words maximum)

I'd like:  
Type text from captcha: