Our friends

Marina and the Diamonds torrent

Torrent info

Date 2010-03-18 18:42:22
Category Music
Hash b33ba29cee3642e8d176c2688040ac25c3ffe517
Seeds / Leechs -1 / -1 refresh
Full size 130 MB
Tracker http://tracker.openbittorrent.com/scrape
Tags marina diamonds
Download – Marina and the Diamonds Download direct – no client needed

Related torrents

Marina and The Diamonds - Radioactive (2011)incl BonusVid
Marina and The Diamonds - Primadonna (Acoustic) 2012
Marina and The Diamonds - Primadonna (2012 Pop) MRD
Marina amp The Diamonds - Primadonna Rate)

Torrent's content info

20 seconds audio samples

Marina and the Diamonds - Blindfold Me_sample.mp3
Audio file info Duration: 00:02:14.35, start: 0.000000, bitrate: 255 kb/s
Stream #0.0: Audio: mp3, 48000 Hz, stereo, s16, 256 kb/s
Marina and the Diamonds - Plastic Rainbow_sample.mp3
Audio file info Duration: 00:04:19.37, start: 0.000000, bitrate: 255 kb/s
Stream #0.0: Audio: mp3, 48000 Hz, stereo, s16, 256 kb/s
02 Seventeen_sample.mp3
Audio file info Duration: 00:03:21.90, start: 0.000000, bitrate: 191 kb/s
Stream #0.0: Audio: mp3, 48000 Hz, stereo, s16, 192 kb/s
Marina And The Diamonds 'The Shampain Sleeper'_sample.mp3
Audio file info Duration: 00:03:31.23, start: 0.000000, bitrate: 256 kb/s
Stream #0.0: Audio: mp3, 48000 Hz, stereo, s16, 256 kb/s

Contents of download:

130 megabyte in 19 files
Marina and the Diamonds
  • Marina and the Diamonds/01 I Am Not A Robot.mp3 (8.6 MB)
  • Marina and the Diamonds/Marina and the Diamonds-Numb.mp3 (8.5 MB)
  • Marina and the Diamonds/Marina and the Diamonds - Troubled Mind.mp3 (8.5 MB)
  • Marina and the Diamonds/Marina and the Diamonds - Starlight.mp3 (7.9 MB)
  • Marina and the Diamonds/Marina and the Diamonds - Plastic Rainbow.mp3 (7.9 MB)
  • Marina and the Diamonds/Marina and the Diamonds - Horror Pop.mp3 (7.6 MB)
  • Marina and the Diamonds/Marina and the Diamonds - Philoshoper My Arse.mp3 (7.5 MB)
  • Marina and the Diamonds/Marina and the Diamonds - Bad Kidz.mp3 (7.4 MB)
  • Marina and the Diamonds/Marina and the Diamonds - This is L.A..mp3 (7.4 MB)
  • Marina and the Diamonds/MARINA AND THE DIAMONDS _ HOLLYWOOD.mp3 (7 MB)
  • Marina and the Diamonds/MARINA AND THE DIAMONDS _ OBSESSIONS.mp3 (7 MB)
  • Marina and the Diamonds/Marina and the Diamonds - Jealousy.mp3 (6.7 MB)
  • Marina and the Diamonds/Marina And The Diamonds 'The Shampain Sleeper'.mp3 (6.4 MB)
  • Marina and the Diamonds/MARINA AND THE DIAMONDS _ MOWGLI'S ROAD.mp3 (6.4 MB)
  • Marina and the Diamonds/Marina and the Diamonds - Daddy was a sailor.mp3 (6.3 MB)
  • Marina and the Diamonds/Marina and the Diamonds - Space and the Woods.mp3 (5.7 MB)
  • Marina and the Diamonds/02 Seventeen.mp3 (4.6 MB)
  • Marina and the Diamonds/Marina and the Diamonds - Blindfold Me.mp3 (4.1 MB)
  • Marina and the Diamonds/03 Simplify.mp3 (3.7 MB)

Comments:


Add report or comment (250 words maximum)

I'd like:  
Type text from captcha: