Our friends

Lady Antebellum - Need You Now (2010-mp3-320) torrent

Torrent info

Date 2010-06-06 06:30:43
Category Music
Hash 25133aac8334df8f77429e63f12b5ed2574441fd
Seeds / Leechs 75 / 12 refresh
Full size 103 MB
Tracker http://tracker.publicbt.com/scrape
Tags lady antebellum need 2010
Download – Lady Antebellum - Need You Now (2010-mp3-320) Download direct – no client needed

Related torrents

Lady Antebellum - Need You Now - 2010 320k
Lady Antebellum - Need You Now (2010-mp3-320)
01-lady_antebellum-need_you_now mp3
Lady Antebellum - Need You Now 2010 mp3@CBR320

Torrent's content info

20 seconds audio samples

02 - Lady Antebellum - Our Kind Of Love_sample.mp3
Audio file info Duration: 00:04:09.28, start: 0.000000, bitrate: 320 kb/s
Stream #0.0: Audio: mp3, 44100 Hz, stereo, s16, 320 kb/s
10 - Lady Antebellum - Something 'Bout A Woman_sample.mp3
Audio file info Duration: 00:03:41.72, start: 0.000000, bitrate: 320 kb/s
Stream #0.0: Audio: mp3, 44100 Hz, stereo, s16, 320 kb/s
03 - Lady Antebellum - American Honey_sample.mp3
Audio file info Duration: 00:03:44.91, start: 0.000000, bitrate: 320 kb/s
Stream #0.0: Audio: mp3, 44100 Hz, stereo, s16, 320 kb/s
08 - Lady Antebellum - Stars Tonight_sample.mp3
Audio file info Duration: 00:04:04.19, start: 0.000000, bitrate: 320 kb/s
Stream #0.0: Audio: mp3, 44100 Hz, stereo, s16, 320 kb/s

Contents of download:

103 megabyte in 14 files
Lady Antebellum - Need You Now (2010-mp3-320)
  • Lady Antebellum - Need You Now (2010)/04 - Lady Antebellum - Hello World.mp3 (12 MB)
  • Lady Antebellum - Need You Now (2010)/07 - Lady Antebellum - When You Got A Good Thing.mp3 (11 MB)
  • Lady Antebellum - Need You Now (2010)/01 - Lady Antebellum - Need You Now.mp3 (11 MB)
  • Lady Antebellum - Need You Now (2010)/09 - Lady Antebellum - If I Knew Then.mp3 (10 MB)
  • Lady Antebellum - Need You Now (2010)/02 - Lady Antebellum - Our Kind Of Love.mp3 (9.5 MB)
  • Lady Antebellum - Need You Now (2010)/08 - Lady Antebellum - Stars Tonight.mp3 (9.3 MB)
  • Lady Antebellum - Need You Now (2010)/03 - Lady Antebellum - American Honey.mp3 (8.6 MB)
  • Lady Antebellum - Need You Now (2010)/10 - Lady Antebellum - Something 'Bout A Woman.mp3 (8.5 MB)
  • Lady Antebellum - Need You Now (2010)/05 - Lady Antebellum - Perfect Day.mp3 (7.7 MB)
  • Lady Antebellum - Need You Now (2010)/06 - Lady Antebellum - Love This Pain.mp3 (7 MB)
  • Lady Antebellum - Need You Now (2010)/11 - Lady Antebellum - Ready To Love Again.mp3 (6.6 MB)
  • Lady Antebellum - Need You Now (2010)/Lady Antebellum - Need You Now [Back].jpg (1 MB)
  • Lady Antebellum - Need You Now (2010)/Lady Antebellum - Need You Now [CD].jpg (0.3 MB)
  • Lady Antebellum - Need You Now (2010)/Lady Antebellum - Need You Now [Front].jpg (0.3 MB)

Comments:


Add report or comment (250 words maximum)

I'd like:  
Type text from captcha: