Our friends

Обсуждению не подлежит 2 / Undisputed 2 (2006) DVDRip {russian} torrent

Torrent info

Date 2010-06-07 18:33:29
Category Movies
Hash 2c4d5f273b163878e4c6dfa6747b0134b2038699
Seeds / Leechs -1 / -1 refresh
Full size 700 MB
Tracker http://tracker.openbittorrent.com/scrape
Tags Обсуждению не подлежит undisputed 2006 dvdrip russian

Related torrents

Кэнди / Candy (2006) DVDRip {russian}
Страшно до смерти / Heartstopper (2006) DVDRip {russian}
Iron Maiden - Death On The Road (2006) DVDRip {russian}
Рассвет и закат слэшеров / The Rise and Fall of the Slasher Film (2006) DVDRip {russian}

Torrent's content info

Obsuzdeniu.Ne.Podlezit.2.DVDRip._rus_.avi

Обсуждению не подлежит 2 / Undisputed 2 (2006) DVDRip {russian} screenshot
  • Screenshot 1
  • Screenshot 2
  • Screenshot 3
  • Screenshot 4
  • Screenshot 5
  • Screenshot 6
  • Screenshot 7
  • Screenshot 8
  • Screenshot 9

Duration: 01:33:32.28, start: 0.000000, bitrate: 1045 kb/s
Stream #0.0: Video: mpeg4, yuv420p, 592x320 [PAR 1:1 DAR 37:20], 25 tbr, 25 tbn, 25 tbc
Stream #0.1: Audio: mp3, 48000 Hz, stereo, s16, 128 kb/s

Check the movie's sound/language:

Contents of download:

700 megabyte in 1 files
Обсуждению не подлежит 2 / Undisputed 2 (2006) DVDRip {russian}
  • Obsuzdeniu.Ne.Podlezit.2.DVDRip._rus_.avi (700 MB)

Comments:


Add report or comment (250 words maximum)

I'd like:  
Type text from captcha: