Our friends

The Lord of the Rings - Extended Trilogy [DVDRip-Xvid-AC3-5.1] torrent

Torrent info

Date 2010-06-07 18:33:37
Category Movies
Hash f7437a36cb2ecc12e540e76d59fdaabc2acfa062
Seeds / Leechs 822 / 186 refresh
Full size 4479 MB
Tracker http://tracker.openbittorrent.com/scrape
Tags lord rings extended trilogy dvdrip xvid

Related torrents

The Da Vinci Code 2006 EXTENDED EDiTiON DVDRip XViD-BTSFilms
Twilight (Extended Scenes) DVDrip xvid-sailo1
Halloween.1978.EXTENDED.EDITION.DVDRip.XviD-FiCO
The Lord of the Rings - Extended Trilogy [DVDRip-Xvid-AC3-5.1]

The Lord of the Rings: The Fellowship of the Ring (2001) overview

Director: Jackson, Peter (I)

Description

An ancient Ring thought lost for centuries has been found, and through a strange twist in fate has been given to a small Hobbit named Frodo. When Gandalf discovers the Ring is in fact the One Ring of the Dark Lord Sauron, Frodo must make an epic quest to the Cracks of Doom in order to destroy it! However he does not go alone. He is joined by Gandalf, Legolas the elf, Gimli the Dwarf, Aragorn, Boromir and his three Hobbit friends Merry, Pippin and Samwise. Through mountains, snow, darkness, forests, rivers and plains, facing evil and danger at every corner the Fellowship of the Ring must go. Their quest to destroy the One Ring is the only hope for the end of the Dark Lords reign! 

Torrent's content info

The Return of the King.avi

The Lord of the Rings - Extended Trilogy [DVDRip-Xvid-AC3-5.1] screenshot
  • Screenshot 1
  • Screenshot 2
  • Screenshot 3
  • Screenshot 4
  • Screenshot 5
  • Screenshot 6
  • Screenshot 7
  • Screenshot 8
  • Screenshot 9

Duration: 04:02:14.48, start: 0.000000, bitrate: 953 kb/s
Stream #0.0: Video: mpeg4, yuv420p, 544x320 [PAR 1:1 DAR 17:10], 25.00 tb(r)
Stream #0.1: Audio: ac3, 48000 Hz, 5:1, s16, 192 kb/s

Check the movie's sound/language:

Text sample Text sample from file info.txt

The Lord of the Rings - Extended Trilogy

SOURCE
Distributor: AB Svensk Filmindustri/FS Film OY
Region: 2 PAL
Video: MPEG2 Anamorphic
Audio: Dolby Digital EX 5.1

DVDRip
Container: Avi OpenDML
File size: 1362 MB / 1463 MB / 1652 MB
Movie Length: 200 min / 214 min / 242 min
Subs: Finnish and Swedish optional

VIDEO
Codec: Xvid 1.0.2
Resolution: 544x320
Aspect Ratio: 1.70:1 Anamorphic widescreen (2.35:1)
Bitrate: 755 kbps
Frame Quality: 0.174 bits/pixel
FPS: 25.000 PAL

MPEG4 FEATURES
Passes: 2
Packed Bitstream: No
QPel: No
GMC: No
Interlaced: No
Aspect Ratio: Square Pixels
Quant Type: H.263
B-VOPs: 2

AUDIO
Codec: AC3
Channels: 5.1
Bitrate: 192 kbps
Frequency: 48000 Hz
Language: English

_______________________

Ripped by MuSickFinder

! DVD Player Compatible
Tested in Philips DVP630 DivX player




Contents of download:

4479 megabyte in 10 files
The Lord of the Rings - Extended Trilogy [DVDRip-Xvid-AC3-5.1]
  • The Lord of the Rings - Extended Trilogy/The Fellowship of the Ring - Fin.srt (0.1 MB)
  • The Lord of the Rings - Extended Trilogy/The Fellowship of the Ring - Swe.srt (0.1 MB)
  • The Lord of the Rings - Extended Trilogy/The Fellowship of the Ring.avi (1362 MB)
  • The Lord of the Rings - Extended Trilogy/The Return of the King - Fin.srt (0.1 MB)
  • The Lord of the Rings - Extended Trilogy/The Return of the King - Swe.srt (0.1 MB)
  • The Lord of the Rings - Extended Trilogy/The Return of the King.avi (1652 MB)
  • The Lord of the Rings - Extended Trilogy/The Two Towers - Fin.srt (0.1 MB)
  • The Lord of the Rings - Extended Trilogy/The Two Towers - Swe.srt (0.1 MB)
  • The Lord of the Rings - Extended Trilogy/The Two Towers.avi (1464 MB)
  • The Lord of the Rings - Extended Trilogy/file info.txt (0.8 KB)

Comments:


Add report or comment (250 words maximum)

I'd like:  
Type text from captcha: