Our friends

Americas Next Top Model S14E09 Hobbits vs Models PDTV XviD-FQM [eztv] torrent

Torrent info

Date 2010-06-08 18:33:38
Category Series/TV Shows
Hash 16406589f22e58a4a7d8c88b5e1ff11c55b57ffc
Seeds / Leechs -1 / -1 refresh
Full size 350 MB
Tracker http://tracker.publicbt.com/scrape
Tags americas next model s14e09 hobbits models pdtv xvid eztv

Related torrents

Americas Next Top Model S15E11 Franca Sozzani PDTV XviD-FQM [ezt
Americas Next Top Model S16E03 Lori Goldstein PDTV XviD-FQM
Americas Next Top Model S16E06 Sonia Dara PDTV XviD-FQM [eztv]
Americas Next Top Model S16E07 Eric Daman PDTV XviD-FQM [eztv]

America’s next top model overview

Description

The leading organizer of the show and supermodel Tyra Banks and her assistants, two hilarious gay - Miss art director and photographer Jay Manuel chose thirty-five girls who sat at the desk of primary school models in Los Angeles. At the show has already had nine fights, eight make-up through her tears, seven calls a doctor because of a nervous breakdown, six failed falls on the catwalk, communicating with five plump, confident in the irresistibility of its forms, and four photo shoots in the air. "The daily photo shoots and shows, a week without food or a bad mood" - that was my idea of modeling to see this show. It turns out that it does not, and Tyra Banks proves it. "Top Model American-style" - is a lot of bright and colorful day. This show demonstrates that an ordinary girls can test their strength and try to become famous throughout the world. And it's all thanks to professional photographers, makeup artists, and the advice of experienced models. Here you can see and learn about the legends of the fashion business, such as Twiggy, you can get valuable information about your own care, and you can just laugh at the jokes of the jury.

Torrent's content info

Americas.Next.Top.Model.S14E09.Hobbits.vs.Models.PDTV.XviD-FQM.avi

Americas Next Top Model S14E09 Hobbits vs Models PDTV XviD-FQM [eztv] screenshot
  • Screenshot 1
  • Screenshot 2
  • Screenshot 3
  • Screenshot 4
  • Screenshot 5
  • Screenshot 6
  • Screenshot 7
  • Screenshot 8
  • Screenshot 9

Duration: 00:40:36.36, start: 0.000000, bitrate: 1205 kb/s
Stream #0.0: Video: mpeg4, yuv420p, 512x384 [PAR 1:1 DAR 4:3], 29.97 tbr, 29.97 tbn, 29.98 tbc
Stream #0.1: Audio: mp3, 48000 Hz, stereo, s16, 128 kb/s

Check the movie's sound/language:

Contents of download:

350 megabyte in 1 files
Americas Next Top Model S14E09 Hobbits vs Models PDTV XviD-FQM [eztv]
  • Americas.Next.Top.Model.S14E09.Hobbits.vs.Models.PDTV.XviD-FQM.avi (350 MB)

Comments:


Add report or comment (250 words maximum)

I'd like:  
Type text from captcha: