Our friends

Castle - Season 1 torrent

Torrent info

Date 2010-06-08 18:35:50
Category Series/TV Shows
Hash 78e3b473427431d9f42aec11c945150cf4e68430
Seeds / Leechs -1 / -1 refresh
Full size 3503 MB
Tracker http://inferno.demonoid.com:3412/scrape
Tags castle season
Download – Castle - Season 1 Download direct – no client needed

Related torrents

AMR Movie Show Ep 34 (15/05/08) Speed Racer, Doomsday, Dexter Season 1, Prison Break Season 3
Wamdue Project - King of my castle & mixes & covers [LL]
Castle 2009 Season 3 Complete 720p WEB-DL
Castle 2009 Season 4:Episode 20(xCrazy0328x)

Torrent's content info

Castle 01x09 - Little Girl Lost.avi

Castle - Season 1 screenshot
  • Screenshot 1
  • Screenshot 2
  • Screenshot 3
  • Screenshot 4
  • Screenshot 5
  • Screenshot 6
  • Screenshot 7
  • Screenshot 8
  • Screenshot 9

Duration: 00:42:22.56, start: 0.000000, bitrate: 1158 kb/s
Stream #0.0: Video: mpeg4, yuv420p, 624x352 [PAR 1:1 DAR 39:22], 23.98 tbr, 23.98 tbn, 23.98 tbc
Stream #0.1: Audio: mp3, 48000 Hz, stereo, s16, 160 kb/s

Check the movie's sound/language:

Text sample Text sample from Torrent downloaded from Demonoid.com.txt

Torrent downloaded from http://www.Demonoid.com




Contents of download:

3503 megabyte in 11 files
Castle - Season 1
  • Castle - Season 1/Castle 01x01 - Flowers for Your Grave.avi (350 MB)
  • Castle - Season 1/Castle 01x02 - Nanny McDead.avi (351 MB)
  • Castle - Season 1/Castle 01x03 - Hedge Fund Homeboys.avi (350 MB)
  • Castle - Season 1/Castle 01x04 - Hell Hath No Fury.avi (350 MB)
  • Castle - Season 1/Castle 01x05 - A Chill Goes Through Her Veins.avi (350 MB)
  • Castle - Season 1/Castle 01x06 - Always Buy Retail.avi (350 MB)
  • Castle - Season 1/Castle 01x07 - Home Is Where The Heart Stops.avi (350 MB)
  • Castle - Season 1/Castle 01x08 - Ghosts.avi (350 MB)
  • Castle - Season 1/Castle 01x09 - Little Girl Lost.avi (351 MB)
  • Castle - Season 1/Castle 01x10 - A Death in the Family.avi (350 MB)
  • Castle - Season 1/Torrent downloaded from Demonoid.com.txt (0 KB)

Comments:


Add report or comment (250 words maximum)

I'd like:  
Type text from captcha: