Our friends

Brothers and Sisters S03E24 HDTV XviD-2HD avi torrent

Torrent info

Date 2010-06-08 18:36:28
Category Series/TV Shows
Hash 5fe940601eace22d7fdcbefeb2d35ad65be3f0ac
Seeds / Leechs -1 / -1 refresh
Full size 350 MB
Tracker http://eztv.tracker.thepiratebay.org/scrape
Tags brothers sisters s03e24 hdtv xvid
Download – Brothers and Sisters S03E24 HDTV XviD-2HD avi Download direct – no client needed

Related torrents

Brothers And Sisters S01E21 HDTV XviD-NoTV - CT -
Brothers.and.Sisters.S01E15.HDTV.XviD-XOR
Brothers.And.Sisters.S03E12.HDTV.XviD-YesTV
Brothers and Sisters S03E24 HDTV XviD-2HD [www.torrentsforall.net]

Torrent's content info

Brothers.and.Sisters.S03E24.HDTV.XviD-2HD.avi

Brothers and Sisters S03E24 HDTV XviD-2HD avi screenshot
  • Screenshot 1
  • Screenshot 2
  • Screenshot 3
  • Screenshot 4
  • Screenshot 5
  • Screenshot 6
  • Screenshot 7
  • Screenshot 8
  • Screenshot 9

Duration: 00:41:50.25, start: 0.000000, bitrate: 1168 kb/s
Stream #0.0: Video: mpeg4, yuv420p, 624x352 [PAR 1:1 DAR 39:22], 23.98 tb(r)
Stream #0.1: Audio: mp3, 48000 Hz, stereo, s16, 128 kb/s

Check the movie's sound/language:

Contents of download:

350 megabyte in 1 files
Brothers and Sisters S03E24 HDTV XviD-2HD avi
  • Brothers.and.Sisters.S03E24.HDTV.XviD-2HD.avi (350 MB)

Comments:


Add report or comment (250 words maximum)

I'd like:  
Type text from captcha: