Our friends

chak de phatte - punjabi movie 2008.VOB torrent

Torrent info

Date 2010-06-09 18:37:56
Category Movies
Hash afb1f84e3f31257506051819b84a8c87145f04cf
Seeds / Leechs -1 / -1 refresh
Full size 881 MB
Tracker http://tracker.publicbt.com/scrape
Tags chak phatte punjabi movie 2008
Download – chak de phatte - punjabi movie 2008.VOB Download direct – no client needed

Related torrents

Disaster.Movie.[2008].[Spanish].[TS-Screener].[Xvid].[www.simple
The.Onion.Movie[2008]DvDrip.AC3-aXXo
The Pirates Who Don't Do Anything: A VeggieTales Movie (2008)
Disaster.Movie.2008.DVDRip.XviD-5MeOAMT.[Movie-Torrentz]

Torrent's content info

chak de phatte - punjabi movie 2008.VOB

chak de phatte - punjabi movie 2008.VOB screenshot
  • Screenshot 1
  • Screenshot 2
  • Screenshot 3
  • Screenshot 4
  • Screenshot 5
  • Screenshot 6
  • Screenshot 7
  • Screenshot 8
  • Screenshot 9

Duration: 01:03:31.10, start: 0.231111, bitrate: 1938 kb/s
Stream #0.0[0x1e0]: Video: mpeg1video, yuv420p, 352x288 [PAR 178:163 DAR 1958:1467], 1120 kb/s, 25 tbr, 90k tbn, 25 tbc
Stream #0.1[0x1c0]: Audio: mp2, 48000 Hz, 2 channels, s16, 224 kb/s

Check the movie's sound/language:

Contents of download:

881 megabyte in 1 files
chak de phatte - punjabi movie 2008.VOB
  • chak de phatte - punjabi movie 2008.VOB (881 MB)

Comments:


Add report or comment (250 words maximum)

I'd like:  
Type text from captcha: