Our friends

From.Paris.with.Love.2010.BRRip.XVID.AC3-lOVE torrent

Torrent info

Date 2010-06-11 18:33:59
Category Movies
Hash 3b9a8734ddd8bf7973b822a83856c6a43b0779f5
Seeds / Leechs -1 / -1 refresh
Full size 1399 MB
Tracker http://tracker.publicbt.com/scrape
Tags from paris with love 2010 brrip xvid love
Download – From.Paris.with.Love.2010.BRRip.XVID.AC3-lOVE Download direct – no client needed

Related torrents

From Paris With Love 2010 iTALiAN LD R5 XviD-SiLENT[S o M ] avi
From Paris With Love 2010 BRRip H264 AAC-SecretMyth (Kingdom-Release)
From Paris with Love 2010 BDRip XviD AC3 D-Z0N3
Eat Pray Love *2010* [BRRip XviD-miguel] [ENG]

Torrent's content info

From.Paris.with.Love.2010.BRRip.XVID.AC3-lOVE.avi

From.Paris.with.Love.2010.BRRip.XVID.AC3-lOVE screenshot
  • Screenshot 1
  • Screenshot 2
  • Screenshot 3
  • Screenshot 4
  • Screenshot 5
  • Screenshot 6
  • Screenshot 7
  • Screenshot 8
  • Screenshot 9

Duration: 01:32:39.38, start: 0.000000, bitrate: 2111 kb/s
Stream #0.0: Video: mpeg4, yuv420p, 720x304 [PAR 1:1 DAR 45:19], 23.98 tb(r)
Stream #0.1: Audio: ac3, 48000 Hz, 5:1, s16, 448 kb/s

Check the movie's sound/language:

Text sample Text sample from Torrent_downloaded_from_Demonoid.com.txt

Torrent downloaded from http://www.Demonoid.com




Contents of download:

1399 megabyte in 5 files
From.Paris.with.Love.2010.BRRip.XVID.AC3-lOVE
  • From.Paris.with.Love.2010.BRRip.XVID.AC3-lOVE/From.Paris.with.Love.2010.BRRip.XVID.AC3-lOVE.avi (1399 MB)
  • From.Paris.with.Love.2010.BRRip.XVID.AC3-lOVE/From.Paris.with.Love.2010.BRRip.XVID.AC3-lOVE-EN.srt (71.3 KB)
  • From.Paris.with.Love.2010.BRRip.XVID.AC3-lOVE/From.Paris.with.Love.2010.BRRip.XVID.AC3-lOVE-ES.srt (70.4 KB)
  • From.Paris.with.Love.2010.BRRip.XVID.AC3-lOVE/From.Paris.with.Love.2010.BRRip.XVID.AC3-lOVE-PT.srt (66.8 KB)
  • From.Paris.with.Love.2010.BRRip.XVID.AC3-lOVE/Torrent_downloaded_from_Demonoid.com.txt (0 KB)

Comments:


Add report or comment (250 words maximum)

I'd like:  
Type text from captcha: