Our friends

Nine Inch Nails - Ghosts I (2008) torrent

Torrent info

Date 2010-06-12 12:30:15
Category Music
Hash 2ecfe3fd24b90f23b7aadf0cd35e6bff62bf7ea5
Seeds / Leechs -1 / -1 refresh
Full size 64 MB
Tracker http://vip.tracker.thepiratebay.org/scrape
Tags nine inch nails ghosts 2008
Download – Nine Inch Nails - Ghosts I (2008) Download direct – no client needed

Related torrents

Nine Inch Nails - The Slip (2008) - Industrial
Nine Inch Nails-The Slip-2008-NiNEiNCHNAiLS
Nine Inch Nails - The Slip [2008] FLAC
Nine Inch Nails Ghosts Revisited (Joe Jack Wagner remix)

Torrent's content info

20 seconds audio samples

03 Ghosts I_sample.mp3
Audio file info Duration: 00:03:55.05, start: 0.000000, bitrate: 319 kb/s
Stream #0.0: Audio: mp3, 44100 Hz, stereo, s16, 320 kb/s
06 Ghosts I_sample.mp3
Audio file info Duration: 00:04:22.59, start: 0.000000, bitrate: 320 kb/s
Stream #0.0: Audio: mp3, 44100 Hz, stereo, s16, 320 kb/s
01 Ghosts I_sample.mp3
Audio file info Duration: 00:03:03.66, start: 0.000000, bitrate: 320 kb/s
Stream #0.0: Audio: mp3, 44100 Hz, stereo, s16, 320 kb/s
07 Ghosts I_sample.mp3
Audio file info Duration: 00:02:04.08, start: 0.000000, bitrate: 320 kb/s
Stream #0.0: Audio: mp3, 44100 Hz, stereo, s16, 320 kb/s

Text sample Text sample from README.txt

Nine Inch Nails: Ghosts I (2008)

This torrent is an official upload from Nine Inch Nails.

We're very proud to present a new collection of instrumental music, Ghosts I-IV.  Almost two hours of music recorded over an intense ten week period last fall, Ghosts I-IV sprawls Nine Inch Nails across a variety of new terrain.

Now that we're no longer constrained by a record label, we've decided to personally upload Ghosts I, the first of the four volumes, to various torrent sites, because we believe BitTorrent is a revolutionary digital distribution method, and we believe in finding ways to utilize new technologies instead of fighting them.

We encourage you to share the music of Ghosts I with your friends, post it on your website, play it on your podcast, use it for video projects, etc.  It's licensed for all non-commercial use under Creative Commons.

We've also made a 40 page PDF book to accompany the album.  If you'd like to download it for free, visit http://ghosts.nin.com/main/pdf

Ghosts I is the first...

Read full text


Contents of download:

64 megabyte in 11 files
Nine Inch Nails - Ghosts I (2008)
  • Nine Inch Nails - Ghosts I (2008)/01 Ghosts I.mp3 (7 MB)
  • Nine Inch Nails - Ghosts I (2008)/02 Ghosts I.mp3 (7.7 MB)
  • Nine Inch Nails - Ghosts I (2008)/03 Ghosts I.mp3 (9 MB)
  • Nine Inch Nails - Ghosts I (2008)/04 Ghosts I.mp3 (5.2 MB)
  • Nine Inch Nails - Ghosts I (2008)/05 Ghosts I.mp3 (6.7 MB)
  • Nine Inch Nails - Ghosts I (2008)/06 Ghosts I.mp3 (10 MB)
  • Nine Inch Nails - Ghosts I (2008)/07 Ghosts I.mp3 (4.7 MB)
  • Nine Inch Nails - Ghosts I (2008)/08 Ghosts I.mp3 (6.9 MB)
  • Nine Inch Nails - Ghosts I (2008)/09 Ghosts I.mp3 (6.7 MB)
  • Nine Inch Nails - Ghosts I (2008)/README.txt (1.6 KB)
  • Nine Inch Nails - Ghosts I (2008)/cover.jpg (0.3 MB)

Comments:


Add report or comment (250 words maximum)

I'd like:  
Type text from captcha: