Our friends

Muse - The Resistance (mp3-320-2009) torrent

Torrent info

Date 2010-06-15 00:31:07
Category Music
Hash 87084ecdac50ad5696e066da62e7c1bb1be0eb9b
Seeds / Leechs -1 / -1 refresh
Full size 129 MB
Tracker http://tracker.openbittorrent.com/scrape
Tags muse resistance 2009
Download – Muse - The Resistance (mp3-320-2009) Download direct – no client needed

Related torrents

Lew Rockwell 2009 04 14 Tax Resistance-sig_garrett
Heaven Shall Burn - Iconoclast II (The Visual Resistance) 2009
Muse-The Resistance-PROPER-2009-BiGW (
Muse "The Resistance".Album.2009 by Cinewax (HighSpeed) (WwW Quebec-Team Net)

Muse, The Resistance overview

Description

Torrent's content info

20 seconds audio samples

02 - Resistance_sample.mp3
Audio file info Duration: 00:05:56.83, start: 0.000000, bitrate: 320 kb/s
Stream #0.0: Audio: mp3, 44100 Hz, stereo, s16, 320 kb/s
06 - Unnatural Selection_sample.mp3
Audio file info Duration: 00:07:05.12, start: 0.000000, bitrate: 320 kb/s
Stream #0.0: Audio: mp3, 44100 Hz, stereo, s16, 320 kb/s
08 - I Belong to You-Mon Cœur S'ouvre à ta Voix_sample.mp3
Audio file info Duration: 00:05:49.05, start: 0.000000, bitrate: 319 kb/s
Stream #0.0: Audio: mp3, 44100 Hz, stereo, s16, 320 kb/s
04 - United States of Eurasia (+ Collateral Damage)_sample.mp3
Audio file info Duration: 00:05:57.98, start: 0.000000, bitrate: 319 kb/s
Stream #0.0: Audio: mp3, 44100 Hz, stereo, s16, 320 kb/s

Contents of download:

129 megabyte in 12 files
Muse - The Resistance (mp3-320-2009)
  • Muse - The Resistance [mp3-320-2009]/01 - Uprising.mp3 (12 MB)
  • Muse - The Resistance [mp3-320-2009]/02 - Resistance.mp3 (14 MB)
  • Muse - The Resistance [mp3-320-2009]/03 - Undisclosed Desires.mp3 (9.4 MB)
  • Muse - The Resistance [mp3-320-2009]/04 - United States of Eurasia (+ Collateral Damage).mp3 (14 MB)
  • Muse - The Resistance [mp3-320-2009]/05 - Guiding Light.mp3 (10 MB)
  • Muse - The Resistance [mp3-320-2009]/06 - Unnatural Selection.mp3 (16 MB)
  • Muse - The Resistance [mp3-320-2009]/07 - MK Ultra.mp3 (10 MB)
  • Muse - The Resistance [mp3-320-2009]/08 - I Belong to You-Mon Cœur S'ouvre à ta Voix.mp3 (13 MB)
  • Muse - The Resistance [mp3-320-2009]/09 - Exogenesis- Symphony, Pt. 1- Overture.mp3 (10 MB)
  • Muse - The Resistance [mp3-320-2009]/10 - Exogenesis- Symphony, Pt. 2- Cross-Pollination.mp3 (9.4 MB)
  • Muse - The Resistance [mp3-320-2009]/11 - Exogenesis- Symphony, Pt. 3- Redemption.mp3 (11 MB)
  • Muse - The Resistance [mp3-320-2009]/front.jpg (0.1 MB)

Comments:


Add report or comment (250 words maximum)

I'd like:  
Type text from captcha: