Our friends

The Final Destination[2009]DvDrip-LW torrent

Torrent info

Date 2010-06-15 18:33:21
Category Movies
Hash 013a47babc95518c2521c9955fb61b5c8f33cf79
Seeds / Leechs -1 / -1 refresh
Full size 700 MB
Tracker http://www.h33t.com:3310/scrape
Tags final destination 2009 dvdrip
Download – The Final Destination[2009]DvDrip-LW Download direct – no client needed

Related torrents

The.Final.Destination.2009.TeleSync- Lynks
Пункт назначения 4 в 3D / The Final Destination (2009) CAMRip {russian}
Пункт назначения 4 / The Final Destination (2009) BDRip {russian}
The Final Destination (2009) DVDRip Xvid Eng AC3 MKV [Bigjazz]

Torrent's content info

The Final Destination[2009]DvDrip-LW.avi

The Final Destination[2009]DvDrip-LW screenshot
  • Screenshot 1
  • Screenshot 2
  • Screenshot 3
  • Screenshot 4
  • Screenshot 5
  • Screenshot 6
  • Screenshot 7
  • Screenshot 8
  • Screenshot 9

Duration: 01:21:46.92, start: 0.000000, bitrate: 1196 kb/s
Stream #0.0: Video: mpeg4, yuv420p, 640x272 [PAR 1:1 DAR 40:17], 23.98 tbr, 23.98 tbn, 23.98 tbc
Stream #0.1: Audio: mp3, 48000 Hz, 2 channels, s16, 128 kb/s

Check the movie's sound/language:

Text sample Text sample from Torrent downloaded from AhaShare.com.txt

Share the fun!!!
Torrent downloaded from AhaShare.com.txt




Text sample Text sample from tracked_by_h33t_com.txt

tracked by www.h33t.com




Text sample Text sample from Movie Info.txt

-------------------------------------------------
F I L E - I N F O
-------------------------------------------------
File Name : The Final Destination[2009]DvDrip-LW
Type : Movie
Format : AVI
File Size : 700 MB
Duration : 01:21:46
Language : English
Source : DvD
Subtitles : None
Genre : Horror | Thriller
IMDB Link : http://www.imdb.com/title/tt1144884/
IMDB Rating : 5.1/10
IMDB Votes : 9,603 Votes
-------------------------------------------------
V I D E O
-------------------------------------------------
Format : MPEG-4 Visual
Format profile : Streaming Video@L1
Format settings, BVOP : Yes
Format settings, QPel : No
Format settings, GMC : No warppoints
Format settings, Matrix : Default (H.263)
Muxing mode : Packed bitstream
Codec ID : XVID
Codec ID/Hint : XviD
Duration ...

Read full text


Text sample Text sample from tracked_by_sharinghq.net.txt

Read full text


Text sample Text sample from Movie Info.nfo

Read full text


Contents of download:

700 megabyte in 7 files
The Final Destination[2009]DvDrip-LW
  • The Final Destination[2009]DvDrip-LW/Cover/TFD-Cover.jpg (59.3 KB)
  • The Final Destination[2009]DvDrip-LW/Info/Movie Info.nfo (4.2 KB)
  • The Final Destination[2009]DvDrip-LW/Info/Movie Info.txt (3.1 KB)
  • The Final Destination[2009]DvDrip-LW/Movie/The Final Destination[2009]DvDrip-LW.avi (700 MB)
  • The Final Destination[2009]DvDrip-LW/Trackers/tracked_by_sharinghq.net.txt (1.6 KB)
  • The Final Destination[2009]DvDrip-LW/Trackers/Torrent downloaded from AhaShare.com.txt (0.1 KB)
  • The Final Destination[2009]DvDrip-LW/Trackers/tracked_by_h33t_com.txt (0 KB)

Comments:


Add report or comment (250 words maximum)

I'd like:  
Type text from captcha: