Our friends

Другой мир 2: Эволюция / Underworld: Evolution (2006) BDRip от HQ-ViDEO {russian} torrent

Torrent info

Date 2010-06-15 18:34:28
Category Movies
Hash 2a0182e39fe70800014e36b602d48c4c6aa2611d
Seeds / Leechs 11 / 1 refresh
Full size 2235 MB
Tracker http://tracker.publicbt.com/scrape
Tags Другой мир Эволюция underworld evolution 2006 bdrip от video russian

Related torrents

Шаг вперед / Step Up (2006) BDRip от HQ-ViDEO {russian}
Другой мир 2: Эволюция / Underworld: Evolution (2006) BDRip от HQ-ViDEO {russian}
Классный мюзикл / High School Musical (2006) BDRip от HQCLUB {russian}
Сделка с дьяволом / The Covenant (2006) BDRip от HELLYWOOD {russian}

Torrent's content info

Drugoj.Mir.2.Evolyucija.2006.DUAL.BRRip.XviD.AC3.-HQ-ViDEO.avi

Другой мир 2: Эволюция / Underworld: Evolution (2006) BDRip от HQ-ViDEO {russian} screenshot
  • Screenshot 1
  • Screenshot 2
  • Screenshot 3
  • Screenshot 4
  • Screenshot 5
  • Screenshot 6
  • Screenshot 7
  • Screenshot 8
  • Screenshot 9

Duration: 01:42:02.84, start: 0.000000, bitrate: 3061 kb/s
Stream #0.0: Video: mpeg4, yuv420p, 720x300 [PAR 1:1 DAR 12:5], 23.98 tbr, 25 tbn, 23.98 tbc
Stream #0.1: Audio: ac3, 48000 Hz, 5.1, s16, 448 kb/s
Stream #0.2: Audio: ac3, 48000 Hz, 5.1, s16, 448 kb/s

Check the movie's sound/language:

Contents of download:

2235 megabyte in 1 files
Другой мир 2: Эволюция / Underworld: Evolution (2006) BDRip от HQ-ViDEO {russian}
  • Drugoj.Mir.2.Evolyucija.2006.DUAL.BRRip.XviD.AC3.-HQ-ViDEO.avi (2235 MB)

Comments:


Add report or comment (250 words maximum)

I'd like:  
Type text from captcha: