Our friends

Однажды в Риме / When in Rome (2010) CAMRip torrent

Torrent info

Date 2010-06-15 18:40:24
Category Movies
Hash 1dca6079689399abacc2e22f1e45d2c7c474acab
Seeds / Leechs -1 / -1 refresh
Full size 699 MB
Tracker http://tracker.openbittorrent.com/scrape
Tags Однажды Риме when rome 2010 camrip

Related torrents

When in Rome.2010.DvdRip.Xvid {1337x}-Noir
When in Rome 2010 720p Bluray x264-CBGB BOZX
Однажды в Риме / When in Rome (2010) BDRip от HQCLUB {russian}
When in Rome (2010)(ENG 5 1 DD)(Subs 10)(Retail) Jack TBS

Torrent's content info

Odnazhdy.v.Rime.2010.D.CAMRip.avi

Однажды в Риме / When in Rome (2010) CAMRip screenshot
  • Screenshot 1
  • Screenshot 2
  • Screenshot 3
  • Screenshot 4
  • Screenshot 5
  • Screenshot 6
  • Screenshot 7
  • Screenshot 8
  • Screenshot 9

Duration: 01:24:18.00, start: 0.000000, bitrate: 1158 kb/s
Stream #0.0: Video: mpeg4, yuv420p, 704x288 [PAR 1:1 DAR 22:9], 25 tbr, 25 tbn, 25 tbc
Stream #0.1: Audio: mp3, 48000 Hz, 2 channels, s16, 128 kb/s

Check the movie's sound/language:

Contents of download:

699 megabyte in 1 files
Однажды в Риме / When in Rome (2010) CAMRip
  • Odnazhdy.v.Rime.2010.D.CAMRip.avi (699 MB)

Comments:


Add report or comment (250 words maximum)

I'd like:  
Type text from captcha: