Our friends

American Pie 6 - Caindo em Tentacao ( dublado e legendado ) American Pie beta presents house torrent

Torrent info

Date 2010-06-15 18:43:33
Category Movies
Hash 2bfbdf9e1ed5c145bc51a697601ad731af143425
Seeds / Leechs -1 / -1 refresh
Full size 696 MB
Tracker http://tracker.prq.to/scrape
Tags american caindo tentacao dublado legendado american beta presents house

Related torrents

DJ Firecat 451 Presents House Delux 4 320kbps 2010
American Indian Food (Food in American History)
American Pie 6 Presents Beta House [2007] HDTV 720p [Eng] Junoon
VA-Excellence_Sound_Krew_Presents-House_Arrest_3-Bootleg-2013-WiS[rarbg]

American Pie Presents Beta House (2007) overview

Genre: comedy Director: Waller, Andrew

Description

Newly students, Eric, Ryan and Kuz enter into the coolest fraternity on campus - Beta House under the presidency of legendary Dwight Stifler. But the noble cause of tomfoolery has decided to stop the enemy and the brotherhood of cramming Beta must join the fight for the right to a good party. This movie has nothing to do with the first "pie”, but still tries to "mow" for them. The film is not even funny. It seemed very unfunny, dull. A similar situation comedy in the same first "pie" cause laughter to tears, here - zero emotion. Fun with vomiting, in the "pies" were always skillfully, artfully played with, where necessary. Here they are anything but, actually, do not induce vomiting. Speaking specifically on the movie, it is absolutely zero film without a plot and the acting sense. The creators of the film are simply crammed with naked bodies, scenes of partying with a sea of alcohol and a couple of completely unnecessary dialogue. That's the whole movie "American Pie: Presents Beta House".

Torrent's content info

American Pie 6 - Caindo em Tentacao.mp4

American Pie 6 - Caindo em Tentacao ( dublado e legendado ) American Pie beta presents house screenshot
  • Screenshot 1
  • Screenshot 2
  • Screenshot 3
  • Screenshot 4
  • Screenshot 5
  • Screenshot 6
  • Screenshot 7
  • Screenshot 8
  • Screenshot 9

Duration: 01:23:47.27, start: 0.000000, bitrate: 1161 kb/s
Stream #0.0(eng): Data: mp4s / 0x7334706D
Stream #0.1(eng): Data: mp4s / 0x7334706D
Stream #0.2(eng): Video: mpeg4, yuv420p, 624x352 [PAR 1:1 DAR 39:22], 23.98 tb(r)
Stream #0.3(por): Audio: aac, 44100 Hz, stereo, s16
Stream #0.4(eng): Audio: aac, 44100 Hz, stereo, s16
Stream #0.5(por): Subtitle: dvdsub
Stream #0.6(eng): Subtitle: dvdsub

Check the movie's sound/language:

Text sample Text sample from IMPORTANTE LEIA.txt




Contents of download:

696 megabyte in 2 files
American Pie 6 - Caindo em Tentacao ( dublado e legendado ) American Pie beta presents house
  • American Pie 6 - Caindo em Tentacao ( dublado e legendado ) American Pie beta presents house/American Pie 6 - Caindo em Tentacao.mp4 (696 MB)
  • American Pie 6 - Caindo em Tentacao ( dublado e legendado ) American Pie beta presents house/IMPORTANTE LEIA.txt (0.4 KB)

Comments:


Add report or comment (250 words maximum)

I'd like:  
Type text from captcha: