Our friends

Til Death S04E19 HDTV XviD-CRiMSON [eztv] torrent

Torrent info

Date 2010-06-17 18:41:12
Category Series/TV Shows
Hash 56739e407cb77a300ffc7a883389359fe1cece21
Seeds / Leechs 6 / 1 refresh
Full size 175 MB
Tracker http://tracker.publicbt.com/scrape
Tags death s04e19 hdtv xvid crimson eztv
Download – Til Death S04E19 HDTV XviD-CRiMSON [eztv] Download direct – no client needed

Related torrents

Til Death S02E11 HDTV XviD-LOL [eztv]
CSI New York S04E19 HDTV XviD-LOL [eztv]
Til Death S02E15 HDTV XviD-LOL [eztv]
Til Death S04E19 HDTV XviD-CRiMSON [eztv]

Torrent's content info

Til.Death.S04E19.HDTV.XviD-CRiMSON.avi

Til Death S04E19 HDTV XviD-CRiMSON [eztv] screenshot
  • Screenshot 1
  • Screenshot 2
  • Screenshot 3
  • Screenshot 4
  • Screenshot 5
  • Screenshot 6
  • Screenshot 7
  • Screenshot 8
  • Screenshot 9

Duration: 00:20:33.81, start: 0.000000, bitrate: 1189 kb/s
Stream #0.0: Video: mpeg4, yuv420p, 624x352 [PAR 1:1 DAR 39:22], 23.98 tb(r)
Stream #0.1: Audio: mp3, 48000 Hz, stereo, s16, 160 kb/s

Check the movie's sound/language:

Contents of download:

175 megabyte in 1 files
Til Death S04E19 HDTV XviD-CRiMSON [eztv]
  • Til.Death.S04E19.HDTV.XviD-CRiMSON.avi (175 MB)

Comments:


Add report or comment (250 words maximum)

I'd like:  
Type text from captcha: