Our friends

REM - Out Of Time torrent

Torrent info

Date 2010-06-18 12:30:48
Category Music
Hash 3ce019282fc810f5249ab3b73a55eb7fc8f1f401
Seeds / Leechs 6 / 1 refresh
Full size 71 MB
Tracker http://inferno.demonoid.com:3398/scrape
Tags time
Download – REM - Out Of Time Download direct – no client needed

Related torrents

How to Argue and Win Every Time
Ebook Manifesto - The New Time Management - GeeKai
DL Incognito - A Captured Moment In Time [2008/MP3/V2(VBR)/Scene]
Robb Milford - Time you've killed, blood you've spilled (Indie Rock)

Torrent's content info

20 seconds audio samples

R.E.M. - 04 - Out Of Time - Near Wild Heaven_sample.mp3
Audio file info Duration: 00:03:19.68, start: 0.000000, bitrate: 225 kb/s
Stream #0.0: Audio: mp3, 44100 Hz, 2 channels, s16, 224 kb/s
R.E.M. - 01 - Out Of Time - Radio Song_sample.mp3
Audio file info Duration: 00:04:15.47, start: 0.000000, bitrate: 224 kb/s
Stream #0.0: Audio: mp3, 44100 Hz, 2 channels, s16, 224 kb/s
R.E.M. - 10 - Out Of Time - Country Feedback_sample.mp3
Audio file info Duration: 00:04:09.75, start: 0.000000, bitrate: 225 kb/s
Stream #0.0: Audio: mp3, 44100 Hz, 2 channels, s16, 224 kb/s
R.E.M. - 09 - Out Of Time - Texarkana_sample.mp3
Audio file info Duration: 00:03:40.08, start: 0.000000, bitrate: 225 kb/s
Stream #0.0: Audio: mp3, 44100 Hz, 2 channels, s16, 224 kb/s

Text sample Text sample from Torrent downloaded from Demonoid.com.txt

Torrent downloaded from http://www.Demonoid.com




Contents of download:

71 megabyte in 15 files
REM - Out Of Time
  • REM - Out Of Time/Cover.jpg (28.3 KB)
  • REM - Out Of Time/Out Of Time Logfile.log (3.2 KB)
  • REM - Out Of Time/R.E.M. - 01 - Out Of Time - Radio Song.mp3 (6.9 MB)
  • REM - Out Of Time/R.E.M. - 02 - Out Of Time - Losing My Religion.mp3 (7.2 MB)
  • REM - Out Of Time/R.E.M. - 03 - Out Of Time - Low.mp3 (8 MB)
  • REM - Out Of Time/R.E.M. - 04 - Out Of Time - Near Wild Heaven.mp3 (5.4 MB)
  • REM - Out Of Time/R.E.M. - 05 - Out Of Time - Endgame.mp3 (6.2 MB)
  • REM - Out Of Time/R.E.M. - 06 - Out Of Time - Shiny Happy People.mp3 (6.1 MB)
  • REM - Out Of Time/R.E.M. - 07 - Out Of Time - Belong.mp3 (6.6 MB)
  • REM - Out Of Time/R.E.M. - 08 - Out Of Time - Half A World Away.mp3 (5.6 MB)
  • REM - Out Of Time/R.E.M. - 09 - Out Of Time - Texarkana.mp3 (5.9 MB)
  • REM - Out Of Time/R.E.M. - 10 - Out Of Time - Country Feedback.mp3 (6.7 MB)
  • REM - Out Of Time/R.E.M. - 11 - Out Of Time - Me In Honey.mp3 (6.6 MB)
  • REM - Out Of Time/Torrent downloaded from Demonoid.com.txt (0 KB)
  • REM - Out Of Time/folder.jpg (11.5 KB)

Comments:


Add report or comment (250 words maximum)

I'd like:  
Type text from captcha: