Our friends

David Guetta - The Best Of 2010 torrent

Torrent info

Date 2010-06-19 18:30:42
Category Music
Hash 6672497ee331fde6fc4a7f97538fe1f122b29f6b
Seeds / Leechs -1 / -1 refresh
Full size 132 MB
Tracker http://tracker.publicbt.com/scrape
Tags david guetta best 2010
Download – David Guetta - The Best Of 2010 Download direct – no client needed

Related torrents

David Guetta - Fuck Me I'm Famous - 07-02-2010.mp3
David Guetta - Big City Beats - 13-02-2010.mp3
David Guetta - The Best of David Guetta (2010)
Kelly Rowland - Commander (feat. David Guetta) Single 2010- SebastianUb3r

Torrent's content info

20 seconds audio samples

11 Love is gone (Fred Rister & Joachim Garraud radio edit rmx)_sample.mp3
Audio file info Duration: 00:03:21.53, start: 0.000000, bitrate: 193 kb/s
Stream #0.0: Audio: mp3, 44100 Hz, 2 channels, s16, 192 kb/s
01 Baby when the light (with Steve Angelo ft Cozi)_sample.mp3
Audio file info Duration: 00:03:27.85, start: 0.000000, bitrate: 173 kb/s
Stream #0.0: Audio: mp3, 44100 Hz, 2 channels, s16, 32 kb/s
16 Delirious_sample.mp3
Audio file info Duration: 00:05:39.48, start: 0.000000, bitrate: 127 kb/s
Stream #0.0: Audio: mp3, 44100 Hz, 2 channels, s16, 128 kb/s
06 david guetta ft kelly_rowland_-_when_love_takes_over-ministry_sample.mp3
Audio file info Duration: 00:03:09.07, start: 0.000000, bitrate: 193 kb/s
Stream #0.0: Audio: mp3, 44100 Hz, 2 channels, s16, 192 kb/s

Contents of download:

132 megabyte in 24 files
David Guetta - The Best Of 2010
  • David_Guetta-The_Best_Of_2010/04 Love Is Gone (Eddie Thoneick's Liberte Remix).mp3 (16 MB)
  • David_Guetta-The_Best_Of_2010/In Love With Myself.mp3 (6.6 MB)
  • David_Guetta-The_Best_Of_2010/05 Delirious (ft Tara Mc Donald).mp3 (6.4 MB)
  • David_Guetta-The_Best_Of_2010/13 Take me away (bonus track).mp3 (6.1 MB)
  • David_Guetta-The_Best_Of_2010/Time.mp3 (5.9 MB)
  • David_Guetta-The_Best_Of_2010/17 Sexy Bitch Feat Akon.mp3 (5.8 MB)
  • David_Guetta-The_Best_Of_2010/08 Do something love (ft Juliet).mp3 (5.8 MB)
  • David_Guetta-The_Best_Of_2010/18 One Love (Radio Edit).mp3 (5.6 MB)
  • David_Guetta-The_Best_Of_2010/Stay [Rmx].mp3 (5.5 MB)
  • David_Guetta-The_Best_Of_2010/10 Always (ft JD Davis).mp3 (5.5 MB)
  • David_Guetta-The_Best_Of_2010/09 I Gotta Feeling (FMIF Remix).mp3 (5.4 MB)
  • David_Guetta-The_Best_Of_2010/16 Delirious.mp3 (5.2 MB)
  • David_Guetta-The_Best_Of_2010/02 When Love Takes Over (Featuring Kelly Rowland).mp3 (4.7 MB)
  • David_Guetta-The_Best_Of_2010/11 Love is gone (Fred Rister & Joachim Garraud radio edit rmx).mp3 (4.6 MB)
  • David_Guetta-The_Best_Of_2010/14 Love don't let me go (walking away) radio edit (vs The Egg) (bonus track).mp3 (4.5 MB)
  • David_Guetta-The_Best_Of_2010/12 Don't be afraid (bonus track).mp3 (4.5 MB)
  • David_Guetta-The_Best_Of_2010/15 One Love.mp3 (4.5 MB)
  • David_Guetta-The_Best_Of_2010/06 david guetta ft kelly_rowland_-_when_love_takes_over-ministry.mp3 (4.4 MB)
  • David_Guetta-The_Best_Of_2010/Baby When the Lights Go Out.mp3 (4.3 MB)
  • David_Guetta-The_Best_Of_2010/01 Baby when the light (with Steve Angelo ft Cozi).mp3 (4.3 MB)
  • David_Guetta-The_Best_Of_2010/07 Winner of the game (ft JD Davis).mp3 (4.2 MB)
  • David_Guetta-The_Best_Of_2010/03 Gettin' Over (Featuring Chris Willis).mp3 (4.2 MB)
  • David_Guetta-The_Best_Of_2010/Money.mp3 (4 MB)
  • David_Guetta-The_Best_Of_2010/Love is Gone.mp3 (3 MB)

Comments:


Add report or comment (250 words maximum)

I'd like:  
Type text from captcha: