Our friends

Desene Animate Dublate Romana 4 torrent

Torrent info

Date 2010-06-21 18:40:20
Category Movies
Hash 25285d57c7dd454d93464cd791f25f6f7adc16d2
Seeds / Leechs -1 / -1 refresh
Full size 5183 MB
Tracker http://tracker.openbittorrent.com/scrape
Tags desene animate dublate romana
Download – Desene Animate Dublate Romana 4 Download direct – no client needed

Related torrents

George Enescu - Rapsodia Romana
Vendetta Romana STV FRENCH DVDRiP XviD k-SUAL
Delitto a Porta Romana
Once upon a time Man 07of26 The pax romana Xvid MP3 en de fr es mvgroup org avi

Torrent's content info

Cars - dublat romana.avi

Desene Animate Dublate Romana 4 screenshot
  • Screenshot 1
  • Screenshot 2
  • Screenshot 3
  • Screenshot 4
  • Screenshot 5
  • Screenshot 6
  • Screenshot 7
  • Screenshot 8
  • Screenshot 9

Duration: 01:50:33.04, start: 0.000000, bitrate: 2141 kb/s
Stream #0.0: Video: mpeg4, yuv420p, 720x404, 25.00 tb(r)
Stream #0.1: Audio: mp3, 48000 Hz, stereo, s16, 128 kb/s

Check the movie's sound/language:

Contents of download:

5183 megabyte in 4 files
Desene Animate Dublate Romana 4
  • Dublate Romana 4/Cars - dublat romana.avi (1693 MB)
  • Dublate Romana 4/Ice Age 3 - dublat romana.avi (1423 MB)
  • Dublate Romana 4/The Wild - dublat romana.avi (1234 MB)
  • Dublate Romana 4/Everybody Loves Donald - dublat romana.avi (833 MB)

Comments:


Add report or comment (250 words maximum)

I'd like:  
Type text from captcha: