Our friends

Final Destination 4 in Hindi Dubbed torrent

Torrent info

Date 2010-06-21 18:40:59
Category Movies
Hash 3303b2682f0c89f28424c3b84583f986d6e9bb14
Seeds / Leechs -1 / -1 refresh
Full size 739 MB
Tracker http://tracker.publicbt.com/scrape
Tags final destination hindi dubbed
Download – Final Destination 4 in Hindi Dubbed Download direct – no client needed

Related torrents

Final Destination [2000] ENG [DVDRip Xvid] Rated R [h33t][DJ Macdaddy]
Final Destination 3 (2006)[dvdrip]
Final Destination 2 [2003] ENG [DVDRip Xvid] Rated R [h33t][DJ Macdaddy]
Final Destination (2000)dvdripAhashare

Torrent's content info

Final Destination 4.vob

Final Destination 4 in Hindi Dubbed screenshot
  • Screenshot 1
  • Screenshot 2

Duration: 00:40:13.84, start: 0.233567, bitrate: 2476 kb/s
Stream #0.0[0x1e0]: Video: mpeg2video, yuv420p, 352x480 [PAR 20:11 DAR 4:3], 9608 kb/s, 59.94 tbr, 90k tbn, 59.94 tbc
Stream #0.1[0x80]: Audio: ac3, 48000 Hz, stereo, s16, 192 kb/s

Check the movie's sound/language:

Contents of download:

739 megabyte in 2 files
Final Destination 4 in Hindi Dubbed
  • Final Destination 4 in Hindi Dubbed/Sample/Sample.MPG (26 MB)
  • Final Destination 4 in Hindi Dubbed/Final Destination 4.vob (713 MB)

Comments:


Add report or comment (250 words maximum)

I'd like:  
Type text from captcha: