Our friends

Have I Got News For You S40E04 WS PDTV XviD-ANGELiC torrent

Torrent info

Date 2010-11-05 18:25:07
Category Series/TV Shows
Hash 6c2be4cdb5bf0d2ac3c1f02c1da6a283be67c3f6
Seeds / Leechs -1 / -1 refresh
Full size 232 MB
Tracker http://tracker.thepiratebay.org/announce
Tags have news s40e04 pdtv xvid angelic

Related torrents

Doctor Who S04E03 WS PDTV XviD-ANGELiC
Primeval.S02E02.WS.PDTV.XviD-ANGELiC
top gear s11e01 ws pdtv xvid-angelic avi
Mistresses S01E03 WS PDTV XVID-ANGELiC- V O Spanish (Subtitulos www Asia-Team Tv) avi

Torrent's content info

have.i.got.news.for.you.s40e04.ws.pdtv.xvid-angelic.avi

Have I Got News For You S40E04 WS PDTV XviD-ANGELiC screenshot
  • Screenshot 1
  • Screenshot 2
  • Screenshot 3
  • Screenshot 4
  • Screenshot 5
  • Screenshot 6
  • Screenshot 7
  • Screenshot 8
  • Screenshot 9

Duration: 00:28:50.12, start: 0.000000, bitrate: 1125 kb/s
Stream #0.0: Video: mpeg4, yuv420p, 624x352 [PAR 1:1 DAR 39:22], 25 tbr, 25 tbn, 25 tbc
Stream #0.1: Audio: mp3, 48000 Hz, 2 channels, s16, 192 kb/s

Check the movie's sound/language:

Text sample Text sample from www.Torrentday.com.txt

www.TorrentDay.com - Your Gateway To The Scene.

we are the most on-time tracker around the globe, You can download releases whenever they release out by group uploaders.

no Wait Time, no Virus, Very Fast Download Speed.

Join us now at http://www.torrentday.com


Please join us and support TorrentDay.com to grow faster :)


Thank you =)

Come on, Join us at: http://www.Torrentday.com

www.TorrentDay.com
www.TorrentDay.com
www.TorrentDay.com
www.TorrentDay.com




Text sample Text sample from have.i.got.news.for.you.s40e04.ws.pdtv.xvid-angelic.nfo

Have.I.Got.News.For.You.S40E04.WS.PDTV.XviD-ANGELiC

Show: Have I Got News For You
Ep: S40E04
Airdate: 04/11/2010
Res: 624x352
Audio: 128kbit ABR
TVRage: http://www.tvrage.com/shows/id-3804
Genre: Comedy Current Events Politics




Text sample Text sample from Please Read This Guide Now.txt

www.TorrentDay.com - Your Gateway To The Scene.

we are the most on-time tracker around the globe, You can download releases whenever they release out by group uploaders.

no Wait Time, no Virus, Very Fast Download Speed.

Join us now at http://www.torrentday.com


Please join us and support TorrentDay.com to grow faster :)


Thank you =)

Come on, Join us at: http://www.Torrentday.com

www.TorrentDay.com
www.TorrentDay.com
www.TorrentDay.com
www.TorrentDay.com




Contents of download:

232 megabyte in 4 files
Have I Got News For You S40E04 WS PDTV XviD-ANGELiC
  • Have.I.Got.News.For.You.S40E04.WS.PDTV.XviD-ANGELiC [NO-RAR] - [ www.torrentday.com ]/have.i.got.news.for.you.s40e04.ws.pdtv.xvid-angelic.avi (232 MB)
  • Have.I.Got.News.For.You.S40E04.WS.PDTV.XviD-ANGELiC [NO-RAR] - [ www.torrentday.com ]/have.i.got.news.for.you.s40e04.ws.pdtv.xvid-angelic.nfo (0.3 KB)
  • Have.I.Got.News.For.You.S40E04.WS.PDTV.XviD-ANGELiC [NO-RAR] - [ www.torrentday.com ]/Please Read This Guide Now.txt (0.5 KB)
  • Have.I.Got.News.For.You.S40E04.WS.PDTV.XviD-ANGELiC [NO-RAR] - [ www.torrentday.com ]/www.Torrentday.com.txt (0.5 KB)

Comments:


Add report or comment (250 words maximum)

I'd like:  
Type text from captcha: