Our friends

In Treatment S03E06 720p HDTV x264-CTU torrent

Torrent info

Date 2010-11-05 19:39:55
Category Series/TV Shows
Hash 58fe1a1e070a58fe8ac5ef2fc5485694e90043d6
Seeds / Leechs -1 / -1 refresh
Full size 746 MB
Tracker http://tracker.thepiratebay.org/announce
Tags treatment s03e06 720p hdtv x264
Download – In Treatment S03E06 720p HDTV x264-CTU Download direct – no client needed

Related torrents

Burn Notice S03E06 720p HDTV x264-CTU
GREEK S03E06 720p HDTV X264-DIMENSION [www.torrentsforall.net]
GREEK S03E06 720p HDTV X264-DIMENSION
White Collar S03E06 720p HDTV x264-IMMERSE

Torrent's content info

in.treatment.s03e06.720p.hdtv.x264-ctu.mkv

In Treatment S03E06 720p HDTV x264-CTU screenshot
  • Screenshot 1
  • Screenshot 2
  • Screenshot 3
  • Screenshot 4
  • Screenshot 5
  • Screenshot 6
  • Screenshot 7
  • Screenshot 8
  • Screenshot 9

Duration: 00:24:46.52, start: 0.000000, bitrate: N/A
Stream #0.0: Audio: ac3, 48000 Hz, 6 channels, s16
Stream #0.1(eng): Video: h264, yuv420p, 1280x720, PAR 1:1 DAR 16:9, 23.98 tbr, 1k tbn, 47.95 tbc

Check the movie's sound/language:

Text sample Text sample from www.Torrentday.com.txt

www.TorrentDay.com - Your Gateway To The Scene.

we are the most on-time tracker around the globe, You can download releases whenever they release out by group uploaders.

no Wait Time, no Virus, Very Fast Download Speed.

Join us now at http://www.torrentday.com


Please join us and support TorrentDay.com to grow faster :)


Thank you =)

Come on, Join us at: http://www.Torrentday.com

www.TorrentDay.com
www.TorrentDay.com
www.TorrentDay.com
www.TorrentDay.com




Text sample Text sample from Please Read This Guide Now.txt

www.TorrentDay.com - Your Gateway To The Scene.

we are the most on-time tracker around the globe, You can download releases whenever they release out by group uploaders.

no Wait Time, no Virus, Very Fast Download Speed.

Join us now at http://www.torrentday.com


Please join us and support TorrentDay.com to grow faster :)


Thank you =)

Come on, Join us at: http://www.Torrentday.com

www.TorrentDay.com
www.TorrentDay.com
www.TorrentDay.com
www.TorrentDay.com




Text sample Text sample from in.treatment.s03e06.720p.hdtv.x264-ctu.nfo

In.Treatment.S03E06.720p.HDTV.x264-CTU
date: Tue Nov 02 2010




Contents of download:

746 megabyte in 4 files
In Treatment S03E06 720p HDTV x264-CTU
  • In.Treatment.S03E06.720p.HDTV.x264-CTU [NO-RAR] - [ www.torrentday.com ]/in.treatment.s03e06.720p.hdtv.x264-ctu.mkv (746 MB)
  • In.Treatment.S03E06.720p.HDTV.x264-CTU [NO-RAR] - [ www.torrentday.com ]/in.treatment.s03e06.720p.hdtv.x264-ctu.nfo (0.1 KB)
  • In.Treatment.S03E06.720p.HDTV.x264-CTU [NO-RAR] - [ www.torrentday.com ]/Please Read This Guide Now.txt (0.5 KB)
  • In.Treatment.S03E06.720p.HDTV.x264-CTU [NO-RAR] - [ www.torrentday.com ]/www.Torrentday.com.txt (0.5 KB)

Comments:


Add report or comment (250 words maximum)

I'd like:  
Type text from captcha: