Our friends

The Wanted - The Wanted (2010) torrent

Torrent info

Date 2010-11-09 15:16:28
Category Music
Hash eb679321d29ecfd48e9721d94fba0d0bb3c9fb79
Seeds / Leechs -1 / -1 refresh
Full size 65 MB
Tracker http://tracker.thepiratebay.org/announce
Tags wanted wanted 2010
Download – The Wanted - The Wanted (2010) Download direct – no client needed

Related torrents

Wanted.2008.DVDRip.R5.XviD-iVE www.dmnhubs.com
[usamixtpe.co.cc] The Hitmen & Lil Wayne - Amerikaz Most Wanted
Malibu's Most Wanted
Gucci Mane - The Appeal Georgias Most Wanted[2010]-LW

Torrent's content info

20 seconds audio samples

10 - Track 10 - The Wanted_sample.mp3
Audio file info Duration: 00:03:48.34, start: 0.000000, bitrate: 191 kb/s
Stream #0.0: Audio: mp3, 44100 Hz, stereo, s16, 192 kb/s
12 - Track 12 - The Wanted_sample.mp3
Audio file info Duration: 00:03:22.04, start: 0.000000, bitrate: 191 kb/s
Stream #0.0: Audio: mp3, 44100 Hz, stereo, s16, 192 kb/s
05 - Track 5 - The Wanted_sample.mp3
Audio file info Duration: 00:03:42.02, start: 0.000000, bitrate: 191 kb/s
Stream #0.0: Audio: mp3, 44100 Hz, stereo, s16, 192 kb/s
11 - Track 11 - The Wanted_sample.mp3
Audio file info Duration: 00:03:01.61, start: 0.000000, bitrate: 192 kb/s
Stream #0.0: Audio: mp3, 44100 Hz, stereo, s16, 192 kb/s

Contents of download:

65 megabyte in 16 files
The Wanted - The Wanted (2010)
  • The Wanted - The Wanted.(2010).(pixie09)/01 - Track 1 - The Wanted.mp3 (4.7 MB)
  • The Wanted - The Wanted.(2010).(pixie09)/02 - Track 2 - The Wanted.mp3 (5.1 MB)
  • The Wanted - The Wanted.(2010).(pixie09)/03 - Track 3 - The Wanted.mp3 (5.3 MB)
  • The Wanted - The Wanted.(2010).(pixie09)/04 - Track 4 - The Wanted.mp3 (5.7 MB)
  • The Wanted - The Wanted.(2010).(pixie09)/05 - Track 5 - The Wanted.mp3 (5.1 MB)
  • The Wanted - The Wanted.(2010).(pixie09)/06 - Track 6 - The Wanted.mp3 (4.8 MB)
  • The Wanted - The Wanted.(2010).(pixie09)/07 - Track 7 - The Wanted.mp3 (4.6 MB)
  • The Wanted - The Wanted.(2010).(pixie09)/08 - Track 8 - The Wanted.mp3 (4 MB)
  • The Wanted - The Wanted.(2010).(pixie09)/09 - Track 9 - The Wanted.mp3 (5.4 MB)
  • The Wanted - The Wanted.(2010).(pixie09)/10 - Track 10 - The Wanted.mp3 (5.2 MB)
  • The Wanted - The Wanted.(2010).(pixie09)/11 - Track 11 - The Wanted.mp3 (4.2 MB)
  • The Wanted - The Wanted.(2010).(pixie09)/12 - Track 12 - The Wanted.mp3 (4.6 MB)
  • The Wanted - The Wanted.(2010).(pixie09)/13 - Track 13 - The Wanted.mp3 (4.8 MB)
  • The Wanted - The Wanted.(2010).(pixie09)/back.jpg (0.7 MB)
  • The Wanted - The Wanted.(2010).(pixie09)/cd.jpg (0.3 MB)
  • The Wanted - The Wanted.(2010).(pixie09)/front.jpg (0.9 MB)

Comments:


Add report or comment (250 words maximum)

I'd like:  
Type text from captcha: