Our friends

Grotesco S02E01 SWEDISH DVBRip XviD-Movieboys torrent

Torrent info

Date 2010-11-09 18:03:08
Category Series/TV Shows
Hash cbc60675fab39423744c52eb7c11a06d7fbc55e6
Seeds / Leechs -1 / -1 refresh
Full size 252 MB
Tracker http://tracker.thepiratebay.org/announce
Tags grotesco s02e01 swedish dvbrip xvid movieboys
Download – Grotesco S02E01 SWEDISH DVBRip XviD-Movieboys Download direct – no client needed

Related torrents

Klungan.Stämning.2006.SWEDISH.DVBRip.XviD-Movieboys
In 2011 SWEDISH DVBRip XviD-Movieboys
Goda Råd 2008 SWEDISH DVBRip XviD-Movieboys

Torrent's content info

Grotesco.S02E01.SWEDISH.DVBRip.XviD-Movieboys.avi

Grotesco S02E01 SWEDISH DVBRip XviD-Movieboys screenshot
  • Screenshot 1
  • Screenshot 2
  • Screenshot 3
  • Screenshot 4
  • Screenshot 5
  • Screenshot 6
  • Screenshot 7
  • Screenshot 8
  • Screenshot 9

Duration: 00:28:09.16, start: 0.000000, bitrate: 1251 kb/s
Stream #0.0: Video: mpeg4, yuv420p, 640x360 [PAR 1:1 DAR 16:9], 25.00 tb(r)
Stream #0.1: Audio: mp3, 48000 Hz, stereo, s16, 128 kb/s

Check the movie's sound/language:

Text sample Text sample from Grotesco.S02E01.SWEDISH.DVBRip.XviD-Movieboys.nfo

Read full text


Contents of download:

252 megabyte in 2 files
Grotesco S02E01 SWEDISH DVBRip XviD-Movieboys
  • Grotesco.S02E01.SWEDISH.DVBRip.XviD-Movieboys/Grotesco.S02E01.SWEDISH.DVBRip.XviD-Movieboys.avi (252 MB)
  • Grotesco.S02E01.SWEDISH.DVBRip.XviD-Movieboys/Grotesco.S02E01.SWEDISH.DVBRip.XviD-Movieboys.nfo (1.6 KB)

Comments:


Add report or comment (250 words maximum)

I'd like:  
Type text from captcha: