Our friends

VA-Loretta Lynn And Friends-Coal Miners Daughter A Tribute To Lo torrent

Torrent info

Date 2010-11-10 04:01:20
Category Other
Hash bdb61809f8357abbe4f79fe79f66aa7f8dfa16f0
Seeds / Leechs -1 / -1 refresh
Full size 49 MB
Tracker http://tracker.thepiratebay.org/announce
Tags loretta lynn friends coal miners daughter tribute

Related torrents

Loretta Lynn
Coal Miners Daughter (1980) 1080p BrRip x264 - YIFY
Finding Bigfoot S04E12 Coal Miners Bigfoot HDTV x264-SPASM
[ www.Torrenting.com ] - Finding.Bigfoot.S04E12.Coal.Miners.Bigfoot.720p.HDTV.x264-DHD

Torrent's content info

20 seconds audio samples

10-kid_rock-i_know_how_sample.mp3
Audio file info Duration: 00:04:03.61, start: 0.000000, bitrate: 214 kb/s
Stream #0.0: Audio: mp3, 44100 Hz, 2 channels, s16, 32 kb/s
05-alan_jackson_and_martina_mcbride-louisiana_woman_mississippi_man_sample.mp3
Audio file info Duration: 00:03:01.68, start: 0.000000, bitrate: 200 kb/s
Stream #0.0: Audio: mp3, 44100 Hz, 2 channels, s16, 32 kb/s
08-steve_earl_and_allison_moorer-after_the_fire_is_gone_sample.mp3
Audio file info Duration: 00:02:52.90, start: 0.000000, bitrate: 190 kb/s
Stream #0.0: Audio: mp3, 44100 Hz, 2 channels, s16, 32 kb/s
12-loretta_lynn_sheryl_crow_and_miranda_lambert-coal_miners_daughter_sample.mp3
Audio file info Duration: 00:03:11.37, start: 0.000000, bitrate: 184 kb/s
Stream #0.0: Audio: mp3, 44100 Hz, 2 channels, s16, 32 kb/s

Contents of download:

49 megabyte in 17 files
VA-Loretta Lynn And Friends-Coal Miners Daughter A Tribute To Lo
  • VA-Loretta_Lynn_And_Friends-Coal_Miners_Daughter_A_Tribute_To_Loretta_Lynn-2010-VAG/10-kid_rock-i_know_how.mp3 (6.2 MB)
  • VA-Loretta_Lynn_And_Friends-Coal_Miners_Daughter_A_Tribute_To_Loretta_Lynn-2010-VAG/11-lucinda_williams-somebody_somewhere_(dont_know_what_hes_missing_tonight).mp3 (4.6 MB)
  • VA-Loretta_Lynn_And_Friends-Coal_Miners_Daughter_A_Tribute_To_Loretta_Lynn-2010-VAG/05-alan_jackson_and_martina_mcbride-louisiana_woman_mississippi_man.mp3 (4.4 MB)
  • VA-Loretta_Lynn_And_Friends-Coal_Miners_Daughter_A_Tribute_To_Loretta_Lynn-2010-VAG/03-the_white_stripes-rated_x.mp3 (4.2 MB)
  • VA-Loretta_Lynn_And_Friends-Coal_Miners_Daughter_A_Tribute_To_Loretta_Lynn-2010-VAG/12-loretta_lynn_sheryl_crow_and_miranda_lambert-coal_miners_daughter.mp3 (4.2 MB)
  • VA-Loretta_Lynn_And_Friends-Coal_Miners_Daughter_A_Tribute_To_Loretta_Lynn-2010-VAG/02-lee_ann_womack-im_a_honky_tonk_girl.mp3 (4 MB)
  • VA-Loretta_Lynn_And_Friends-Coal_Miners_Daughter_A_Tribute_To_Loretta_Lynn-2010-VAG/08-steve_earl_and_allison_moorer-after_the_fire_is_gone.mp3 (3.9 MB)
  • VA-Loretta_Lynn_And_Friends-Coal_Miners_Daughter_A_Tribute_To_Loretta_Lynn-2010-VAG/04-carrie_underwood-youre_lookin_at_country.mp3 (3.8 MB)
  • VA-Loretta_Lynn_And_Friends-Coal_Miners_Daughter_A_Tribute_To_Loretta_Lynn-2010-VAG/09-reba_feat_the_time_jumpers-if_youre_not_gone_too_long.mp3 (3.8 MB)
  • VA-Loretta_Lynn_And_Friends-Coal_Miners_Daughter_A_Tribute_To_Loretta_Lynn-2010-VAG/07-faith_hill-love_is_the_foundation.mp3 (3.5 MB)
  • VA-Loretta_Lynn_And_Friends-Coal_Miners_Daughter_A_Tribute_To_Loretta_Lynn-2010-VAG/01-gretchen_wilson-dont_come_home_a_drinkin_(with_lovin_on_your_mind).mp3 (3 MB)
  • VA-Loretta_Lynn_And_Friends-Coal_Miners_Daughter_A_Tribute_To_Loretta_Lynn-2010-VAG/06-paramore-you_aint_woman_enough_(to_take_my_mind).mp3 (2.8 MB)
  • VA-Loretta_Lynn_And_Friends-Coal_Miners_Daughter_A_Tribute_To_Loretta_Lynn-2010-VAG/00-va-loretta_lynn_and_friends-coal_miners_daughter_a_tribute_to_loretta_lynn-2010.nfo (19.8 KB)
  • VA-Loretta_Lynn_And_Friends-Coal_Miners_Daughter_A_Tribute_To_Loretta_Lynn-2010-VAG/00-va-loretta_lynn_and_friends-coal_miners_daughter_a_tribute_to_loretta_lynn-2010.sfv (0.8 KB)
  • VA-Loretta_Lynn_And_Friends-Coal_Miners_Daughter_A_Tribute_To_Loretta_Lynn-2010-VAG/00-va-loretta_lynn_and_friends-coal_miners_daughter_a_tribute_to_loretta_lynn-2010.m3u (0.7 KB)
  • VA-Loretta_Lynn_And_Friends-Coal_Miners_Daughter_A_Tribute_To_Loretta_Lynn-2010-VAG/www.mp3tera.org.url (0.2 KB)
  • VA-Loretta_Lynn_And_Friends-Coal_Miners_Daughter_A_Tribute_To_Loretta_Lynn-2010-VAG/www.mp3nova.org.url (0.2 KB)

Comments:


Add report or comment (250 words maximum)

I'd like:  
Type text from captcha: