Our friends

Take That - Progress (2010) @ 320kbs torrent

Torrent info

Date 2010-11-15 19:01:20
Category Music
Hash 7c261ce3eba7e3c96af68b3de543946bc74e610b
Seeds / Leechs -1 / -1 refresh
Full size 108 MB
Tracker http://tracker.thepiratebay.org/announce
Tags take that progress 2010 320kbs
Download – Take That - Progress (2010) @ 320kbs Download direct – no client needed

Related torrents

[2008] The Circus - Take That - 146mb @ 320kbs ~
[2005] The Ultimate Collection (Never Forget) - Take That - 189mb @ 320kbs
Take That - Progress 2010 CDRip [Bubanee]
Take That - Progress (2010) 320KB (Spookkie) TBS

Torrent's content info

20 seconds audio samples

1. The Flood_sample.mp3
Audio file info Duration: 00:04:49.41, start: 0.000000, bitrate: 320 kb/s
Stream #0.0: Audio: mp3, 44100 Hz, 2 channels, s16, 320 kb/s
2. SOS_sample.mp3
Audio file info Duration: 00:03:44.44, start: 0.000000, bitrate: 320 kb/s
Stream #0.0: Audio: mp3, 44100 Hz, 2 channels, s16, 320 kb/s
9. Affirmation_sample.mp3
Audio file info Duration: 00:03:54.44, start: 0.000000, bitrate: 320 kb/s
Stream #0.0: Audio: mp3, 44100 Hz, 2 channels, s16, 320 kb/s
7. Underground Machine_sample.mp3
Audio file info Duration: 00:04:15.58, start: 0.000000, bitrate: 320 kb/s
Stream #0.0: Audio: mp3, 44100 Hz, 2 channels, s16, 320 kb/s

Contents of download:

108 megabyte in 11 files
Take That - Progress (2010) @ 320kbs
  • Take That - Progress/1. The Flood.mp3 (11 MB)
  • Take That - Progress/10.Eight Letters.mp3 (20 MB)
  • Take That - Progress/2. SOS.mp3 (8.6 MB)
  • Take That - Progress/3. Wait.mp3 (10 MB)
  • Take That - Progress/4. Kidz.mp3 (11 MB)
  • Take That - Progress/5. Pretty Things.mp3 (9.3 MB)
  • Take That - Progress/6. Happy Now.mp3 (9.3 MB)
  • Take That - Progress/7. Underground Machine.mp3 (10 MB)
  • Take That - Progress/8. What Do You Want From Me.mp3 (11 MB)
  • Take That - Progress/9. Affirmation.mp3 (8.9 MB)
  • Take That - Progress/FRONT.jpg (11.6 KB)

Comments:


Add report or comment (250 words maximum)

I'd like:  
Type text from captcha: