Our friends

Iron Chef Australia S01E05 WS PDTV XviD-NANO torrent

Torrent info

Date 2010-11-21 14:00:54
Category Series/TV Shows
Hash 311673b915092007dea684dd298b592383a23d0a
Seeds / Leechs -1 / -1 refresh
Full size 350 MB
Tracker http://tracker.thepiratebay.org/announce
Tags iron chef australia s01e05 pdtv xvid nano
Download – Iron Chef Australia S01E05 WS PDTV XviD-NANO Download direct – no client needed

Related torrents

Top Chef Masters S01E05 HDTV XviD
Bite Me With Dr. Mike.S01E06.Coastal Australia.WS-PDTV.XviD.Ekolb
Shark Tank S01E05 PDTV XviD-2HD avi
Beauty and the Geek Australia S01E03 PDTV XviD avi

Torrent's content info

iron.chef.australia.s01e05.ws.pdtv.xvid-nano.avi

Iron Chef Australia S01E05 WS PDTV XviD-NANO screenshot
  • Screenshot 1
  • Screenshot 2
  • Screenshot 3
  • Screenshot 4
  • Screenshot 5
  • Screenshot 6
  • Screenshot 7
  • Screenshot 8
  • Screenshot 9

Duration: 00:43:03.84, start: 0.000000, bitrate: 1135 kb/s
Stream #0.0: Video: mpeg4, yuv420p, 624x352 [PAR 1:1 DAR 39:22], 25 tbr, 25 tbn, 25 tbc
Stream #0.1: Audio: mp3, 48000 Hz, stereo, s16, 128 kb/s

Check the movie's sound/language:

Text sample Text sample from www.Torrentday.com.txt

www.TorrentDay.com - Your Gateway To The Scene.

we are the most on-time tracker around the globe, You can download releases whenever they release out by group uploaders.

no Wait Time, no Virus, Very Fast Download Speed.

Join us now at http://www.torrentday.com


Please join us and support TorrentDay.com to grow faster :)


Thank you =)

Come on, Join us at: http://www.Torrentday.com

www.TorrentDay.com
www.TorrentDay.com
www.TorrentDay.com
www.TorrentDay.com




Text sample Text sample from Please Read This Guide Now.txt

www.TorrentDay.com - Your Gateway To The Scene.

we are the most on-time tracker around the globe, You can download releases whenever they release out by group uploaders.

no Wait Time, no Virus, Very Fast Download Speed.

Join us now at http://www.torrentday.com


Please join us and support TorrentDay.com to grow faster :)


Thank you =)

Come on, Join us at: http://www.Torrentday.com

www.TorrentDay.com
www.TorrentDay.com
www.TorrentDay.com
www.TorrentDay.com




Contents of download:

350 megabyte in 4 files
Iron Chef Australia S01E05 WS PDTV XviD-NANO
  • Iron.Chef.Australia.S01E05.WS.PDTV.XviD-NANO [NO-RAR] - [ www.torrentday.com ]/iron.chef.australia.s01e05.ws.pdtv.xvid-nano.avi (350 MB)
  • Iron.Chef.Australia.S01E05.WS.PDTV.XviD-NANO [NO-RAR] - [ www.torrentday.com ]/iron.chef.australia.s01e05.ws.pdtv.xvid-nano.nfo (17 KB)
  • Iron.Chef.Australia.S01E05.WS.PDTV.XviD-NANO [NO-RAR] - [ www.torrentday.com ]/Please Read This Guide Now.txt (0.5 KB)
  • Iron.Chef.Australia.S01E05.WS.PDTV.XviD-NANO [NO-RAR] - [ www.torrentday.com ]/www.Torrentday.com.txt (0.5 KB)

Comments:


Add report or comment (250 words maximum)

I'd like:  
Type text from captcha: