Our friends

Leslie Il Mio Nome E Il Male 2009 iTALiAN DVDRip XviD-EgL[gogt] torrent

Torrent info

Date 2010-11-28 21:00:40
Category Movies
Hash 03ed27830bd713e5588fb2519ef7e9b2ad8f03f1
Seeds / Leechs -1 / -1 refresh
Full size 700 MB
Tracker http://tracker.openbittorrent.com/announce
Tags leslie nome male 2009 italian dvdrip xvid gogt

Related torrents

Against The Dark 2009 iTALiAN DVDRip XviD-[WiNetwork-bt] (1S/36L)
Shadow 2009 iTALiAN DVDRip XviD-EgL[gogt]
Non E Ancora Domani La Pivellina 2009 iTALiAN DVDRip XviD-EgL[gogt]
Gentlemen Broncos 2009 iTALiAN DVDRip XviD-Reserved[gogt]

Description

[img]http://uptiki.com/images/3o27s4twrula3th3hpj.jpg[/img]


[b]
Titolo originale: Leslie, My Name Is Evil
Regista: Reginald Harkema
Cast: Gregory Smith, Kristen Hager, Ryan Robbins
Genere: Thriller
Anno: 2009
Nazione: Canada
Durata: 85'
[/b]


[code]
Generale #0
Nome completo        : Leslie Il Mio Nome E Il Male 2009 iTALiAN DVDRip XviD-EgL[gogt].avi
Formato              : AVI
Formato/Info         : Audio Video Interleave
Formato/Family       : RIFF
Dimensione           : 700 Mb
Durata               : 1h 21min
BitRate              : 1207 Kbps
StreamSize           : 7.49 Mb
Application          : VirtualDubMod 1.5.10.2 (build 2540/release)
Compressore          : VirtualDub build 32817/release

Video #0
Codec                : XviD
Codec/Family         : MPEG-4
Codec/Info           : XviD project
Codec profile        : Streaming Video Profile/Level 1
Codec settings/Packe : No
Codec settings/BVOP  : Yes
Codec settings/QPel  : No
Codec settings/GMC   : 0
Codec settings/Matri : Default
Durata               : 1h 21min
BitRate              : 1067 Kbps
Larghezza            : 624 pixels
Altezza              : 336 pixels
AspectRatio          : 1.857
FrameRate            : 25.000 fps
Risoluzione          : 8 bits
Chroma               : 4:2:0
Interlacement        : Progressive
StreamSize           : 619 Mb
BitRate_Nominal      : 1055299.280

Audio #0
Codec                : MPEG-1 Audio layer 3
Codec profile        : Joint stereo
Durata               : 1h 21min
BitRate              : 127 Kbps
Modalità             : VBR
Canali               : 2 canali
SamplingRate         : 48 KHz
Risoluzione          : 16 bits
Ritardo Video        : 6s 292ms
StreamSize           : 74.0 Mb
Compressore          : LAME3.90.
Compressore          : ABR
[/code]




Torrent's content info

Leslie.Il.Mio.Nome.E.Il.Male.2009.iTALiAN.DVDRip.XviD-EgL[gogt].avi

Leslie Il Mio Nome E Il Male 2009 iTALiAN DVDRip XviD-EgL[gogt] screenshot
  • Screenshot 1
  • Screenshot 2
  • Screenshot 3
  • Screenshot 4
  • Screenshot 5
  • Screenshot 6
  • Screenshot 7
  • Screenshot 8
  • Screenshot 9

Duration: 01:21:04.80, start: 0.000000, bitrate: 1207 kb/s
Stream #0.0: Video: mpeg4, yuv420p, 624x336 [PAR 1:1 DAR 13:7], 25 tbr, 25 tbn, 25 tbc
Stream #0.1: Audio: mp3, 48000 Hz, 2 channels, s16, 128 kb/s

Check the movie's sound/language:

Contents of download:

700 megabyte in 1 files
Leslie Il Mio Nome E Il Male 2009 iTALiAN DVDRip XviD-EgL[gogt]
  • Leslie.Il.Mio.Nome.E.Il.Male.2009.iTALiAN.DVDRip.XviD-EgL[gogt].avi (700 MB)

Comments:


Add report or comment (250 words maximum)

I'd like:  
Type text from captcha: