Our friends

Bait (2000) DVDrip V3nDetta torrent

Torrent info

Date 2010-12-08 13:00:07
Category Movies
Hash 3b0b0b24fe8d8b054e8a63dd2ae46dbe22c41fa3
Seeds / Leechs 12 / 4 refresh
Full size 4300 MB
Tracker http://tracker.openbittorrent.com/announce
Tags bait 2000 dvdrip v3ndetta
Download – Bait (2000) DVDrip V3nDetta Download direct – no client needed

Related torrents

Stephen King - Paranoid [2000 [DVDRip] [DivX]
Gone in 60 Seconds [2000]DVDRip[Xvid AC3[5.1]
Bait (2000) DVDrip V3nDetta
[ www.Torrentday.com ] - Bait (2000)-DVDRIp-AC3-Xvid-THC

Description

Bait (2000)

A smaill time con, (jamie fox), finds his past records wiped out, and money in his accounts suddenly. Unknown to him the government is using him as bait to catch a killer.

Full contents of DVD Included

English and French Dolby surround 5.1

English and french Subs

NTSC

119 minutes

Ripped using DVDfab

Brought to you by V3nDetta

Remember download, seed, watch and enjoy.

If you like this movie, please comment on my torrent at kickasstorrents.com!!


Torrent's content info

VTS_01_1.VOB

Bait (2000) DVDrip V3nDetta screenshot
  • Screenshot 1
  • Screenshot 2
  • Screenshot 3
  • Screenshot 4
  • Screenshot 5
  • Screenshot 6
  • Screenshot 7
  • Screenshot 8
  • Screenshot 9

Duration: 00:28:36.74, start: 0.045500, bitrate: 5003 kb/s
Stream #0.0[0x1e0]: Video: mpeg2video, yuv420p, 720x480 [PAR 32:27 DAR 16:9], 7500 kb/s, 59.94 tbr, 90k tbn, 59.94 tbc
Stream #0.1[0x80]: Audio: ac3, 48000 Hz, 5.1, s16, 384 kb/s
Stream #0.2[0x82]: Audio: ac3, 48000 Hz, stereo, s16, 192 kb/s
Stream #0.3[0x81]: Audio: ac3, 0 channels, s16

Check the movie's sound/language:

Text sample Text sample from V3nDetta.txt

Bait (2000)

A smaill time con, (jamie fox), finds his past records wiped out, and money in his accounts suddenly. Unknown to him the government is using him as bait to catch a killer.

Full contents of DVD Included

English and French Dolby surround 5.1

English and french Subs

NTSC

119 minutes

Ripped using DVDfab

Brought to you by V3nDetta

Remember download, seed, watch and enjoy.

If you like this movie, please comment on my torrent at kickasstorrents.com!!




Contents of download:

4300 megabyte in 11 files
Bait (2000) DVDrip V3nDetta
  • Bait (2000) DVDrip V3nDetta/FullDisc/BAIT/VIDEO_TS/VTS_01_1.VOB (1024 MB)
  • Bait (2000) DVDrip V3nDetta/FullDisc/BAIT/VIDEO_TS/VTS_01_3.VOB (1024 MB)
  • Bait (2000) DVDrip V3nDetta/FullDisc/BAIT/VIDEO_TS/VTS_01_2.VOB (1024 MB)
  • Bait (2000) DVDrip V3nDetta/FullDisc/BAIT/VIDEO_TS/VTS_01_4.VOB (1024 MB)
  • Bait (2000) DVDrip V3nDetta/FullDisc/BAIT/VIDEO_TS/VTS_01_5.VOB (198 MB)
  • Bait (2000) DVDrip V3nDetta/FullDisc/BAIT/VIDEO_TS/VTS_01_0.VOB (6.4 MB)
  • Bait (2000) DVDrip V3nDetta/FullDisc/BAIT/VIDEO_TS/VTS_01_0.BUP (84 KB)
  • Bait (2000) DVDrip V3nDetta/FullDisc/BAIT/VIDEO_TS/VTS_01_0.IFO (84 KB)
  • Bait (2000) DVDrip V3nDetta/FullDisc/BAIT/VIDEO_TS/VIDEO_TS.IFO (8 KB)
  • Bait (2000) DVDrip V3nDetta/FullDisc/BAIT/VIDEO_TS/VIDEO_TS.BUP (8 KB)
  • Bait (2000) DVDrip V3nDetta/V3nDetta.txt (0.5 KB)

Comments:


Add report or comment (250 words maximum)

I'd like:  
Type text from captcha: