Our friends

Eminem_and_Dr _Dre-Rehab-2010-DjLeak torrent

Torrent info

Date 2010-12-11 14:01:04
Category Music
Hash a4ffc67b66446a27a89ff15bbb1cfaca370e93bb
Seeds / Leechs -1 / -1 refresh
Full size 85 MB
Tracker http://tracker.thepiratebay.org/announce
Tags eminem rehab 2010 djleak
Download – Eminem_and_Dr _Dre-Rehab-2010-DjLeak Download direct – no client needed

Related torrents

2pac ft Eminem Insomniac 2008 djleak.com promoleak.com
Three Headed Monster( 50 cent Dr Dre eminem ) EP - Unofficial Djleak 2009
DJ_Ill_Will_and_DJ_Rockstar_Presents-Bow_Wow_(G2)-2010-DjLeak
DJ_Whiteowl-Trap_Season_Pt_1(Gucci_Mane_and_Young_Jeezy)-2010-DjLeak

Torrent's content info

20 seconds audio samples

12_Eminem_-_Psycho_(Feat._50_Cent)-Djleak_sample.mp3
Audio file info Duration: 00:04:35.71, start: 0.000000, bitrate: 159 kb/s
Stream #0.0: Audio: mp3, 44100 Hz, stereo, s16, 160 kb/s
03_Dr._Dre_-_I_Need_A_Doctor_(Feat._Eminem)-Djleak_sample.mp3
Audio file info Duration: 00:03:58.70, start: 0.000000, bitrate: 159 kb/s
Stream #0.0: Audio: mp3, 44100 Hz, stereo, s16, 160 kb/s
08_Eminem_-_Feel_Like_You_(Feat._Lloyd_Banks)-Djleak_sample.mp3
Audio file info Duration: 00:05:07.35, start: 0.000000, bitrate: 159 kb/s
Stream #0.0: Audio: mp3, 44100 Hz, stereo, s16, 160 kb/s
14_Eminem_-_What_You_Gonna_Do_(Feat._Dr._Dre_and_Obie_Trice)-Djleak_sample.mp3
Audio file info Duration: 00:06:05.14, start: 0.000000, bitrate: 127 kb/s
Stream #0.0: Audio: mp3, 44100 Hz, stereo, s16, 128 kb/s

Text sample Text sample from 00_Eminem_and_Dr._Dre-Rehab-2010-DjLeak.nfo



DJ LEAK



P - R - E - S - E - N - T - S

VA-Eminem and Dr. Dre-Rehab

ARTiST..: VA
ALBUM...: Eminem and Dr. Dre-Rehab
LABEL...: n/a
GENRE...: Hip-Hop
TRACKS..: 18
MODE....: Joint-Stereo
BiTRATE.: VBRkbps
ENCODER.: Web
SOURCE..: CDDA
GRABBER.:
RiPDATE.: Dec-11-2010
STREET..: 000-00-0000




T - R - A - C - K - L - I - S - T




01 -Dr. Dre-Kush (Feay. Snoop Dogg & Akon) [03:53]
02 -Dr. Dre-Under Pressure (Feat. Jay-Z) [03:29]
03 -Dr. Dre-I Need A Doctor (Feat. Eminem) [04:37]
04 -Eminem-All She Wrote (Feat. T.I.) [05:16]
05 -Eminem-Romans Revenge (Feat. Nicki Minaj) [04:34]
06 -Eminem-Echo (Feat. Royce Da 5'9") [04:15]
07 -Eminem-Living Proof (Feat. Royce Da 5'9") [03:41]
08 -Eminem-Feel Like You (Feat. Lloyd Banks) [05:11]
09 -Eminem-Celebrity ...

Read full text


Contents of download:

85 megabyte in 24 files
Eminem_and_Dr _Dre-Rehab-2010-DjLeak
  • Eminem_and_Dr._Dre-Rehab-2010-DjLeak/08_Eminem_-_Feel_Like_You_(Feat._Lloyd_Banks)-Djleak.mp3 (5.9 MB)
  • Eminem_and_Dr._Dre-Rehab-2010-DjLeak/14_Eminem_-_What_You_Gonna_Do_(Feat._Dr._Dre_and_Obie_Trice)-Djleak.mp3 (5.6 MB)
  • Eminem_and_Dr._Dre-Rehab-2010-DjLeak/04_Eminem_-_All_She_Wrote_(Feat._T.I.)-Djleak.mp3 (5.5 MB)
  • Eminem_and_Dr._Dre-Rehab-2010-DjLeak/12_Eminem_-_Psycho_(Feat._50_Cent)-Djleak.mp3 (5.3 MB)
  • Eminem_and_Dr._Dre-Rehab-2010-DjLeak/16_Eminem_-_Ridaz-Djleak.mp3 (5.2 MB)
  • Eminem_and_Dr._Dre-Rehab-2010-DjLeak/05_Eminem_-_Romans_Revenge_(Feat._Nicki_Minaj)-Djleak.mp3 (5.2 MB)
  • Eminem_and_Dr._Dre-Rehab-2010-DjLeak/10_Eminem_-_Love_the_Way_You_Lie_Pt._2_(Feat._Rihanna)-Djleak.mp3 (5 MB)
  • Eminem_and_Dr._Dre-Rehab-2010-DjLeak/06_Eminem_-_Echo_(Feat._Royce_Da_59)-Djleak.mp3 (4.7 MB)
  • Eminem_and_Dr._Dre-Rehab-2010-DjLeak/09_Eminem_-_Celebrity_(Feat._Akon_and_Lloyd_Banks)-Djleak.mp3 (4.7 MB)
  • Eminem_and_Dr._Dre-Rehab-2010-DjLeak/17_Eminem_-_Session_One_(Feat._Slaughterhouse)-Djleak.mp3 (4.6 MB)
  • Eminem_and_Dr._Dre-Rehab-2010-DjLeak/03_Dr._Dre_-_I_Need_A_Doctor_(Feat._Eminem)-Djleak.mp3 (4.6 MB)
  • Eminem_and_Dr._Dre-Rehab-2010-DjLeak/18_Eminem_-_Like_the_White_Boys_(Feat._Asher_Roth_and_Yelawolf)-Djleak.mp3 (4.4 MB)
  • Eminem_and_Dr._Dre-Rehab-2010-DjLeak/11_Eminem_-_Drop_the_World_(Feat._Lil_Wayne)-Djleak.mp3 (4.3 MB)
  • Eminem_and_Dr._Dre-Rehab-2010-DjLeak/01_Dr._Dre_-_Kush_(Feay._Snoop_Dogg_and_Akon)-Djleak.mp3 (4.2 MB)
  • Eminem_and_Dr._Dre-Rehab-2010-DjLeak/13_Eminem_-_Magic_(Feat._French_Montana)-Djleak.mp3 (4.2 MB)
  • Eminem_and_Dr._Dre-Rehab-2010-DjLeak/07_Eminem_-_Living_Proof_(Feat._Royce_Da_59)-Djleak.mp3 (4.2 MB)
  • Eminem_and_Dr._Dre-Rehab-2010-DjLeak/02_Dr._Dre_-_Under_Pressure_(Feat._Jay-Z)-Djleak.mp3 (4 MB)
  • Eminem_and_Dr._Dre-Rehab-2010-DjLeak/15_Eminem_-_King_Hustle_(Feat._50_Cent)-Djleak.mp3 (3.2 MB)
  • Eminem_and_Dr._Dre-Rehab-2010-DjLeak/00_Eminem_and_Dr._Dre-Rehab-2010-(Front)-Djleak.jpg (42.2 KB)
  • Eminem_and_Dr._Dre-Rehab-2010-DjLeak/00. PromoTorrents.com -.jpg (36.2 KB)
  • Eminem_and_Dr._Dre-Rehab-2010-DjLeak/PromoTorrents.com.jpg (36.2 KB)
  • Eminem_and_Dr._Dre-Rehab-2010-DjLeak/00_Eminem_and_Dr._Dre-Rehab-2010-DjLeak.sfv (5.1 KB)
  • Eminem_and_Dr._Dre-Rehab-2010-DjLeak/00_Eminem_and_Dr._Dre-Rehab-2010-DjLeak.nfo (2.3 KB)
  • Eminem_and_Dr._Dre-Rehab-2010-DjLeak/00_Eminem_and_Dr._Dre-Rehab-2010-DjLeak.m3u (1 KB)

Comments:


Add report or comment (250 words maximum)

I'd like:  
Type text from captcha: