Our friends

Las 100 mejores jugadas de la NBA torrent

Torrent info

Date 2010-12-13 17:51:47
Category Movies
Hash f157e7a67cb28069dd40be63d849604fc8c90d46
Seeds / Leechs 10 / 1 refresh
Full size 1400 MB
Tracker http://tracker.publicbt.com/scrape
Tags mejores jugadas
Download – Las 100 mejores jugadas de la NBA Download direct – no client needed

Related torrents

Ricardo Montaner - Las Mejores Canciones Del Mundo [2007] [Latin
el.barrio.los.mejores.directos
Aplicaciones_Sony_Ericcson_Las_Mejores
Las 100 mejores jugadas de la NBA

Torrent's content info

Las.100.mejores.jugadas.de.la.NBA.[DivxTOTAL].avi

Las 100 mejores jugadas de la NBA screenshot
  • Screenshot 1
  • Screenshot 2
  • Screenshot 3
  • Screenshot 4
  • Screenshot 5
  • Screenshot 6
  • Screenshot 7
  • Screenshot 8
  • Screenshot 9

Duration: 00:56:33.69, start: 0.000000, bitrate: 3461 kb/s
Stream #0.0: Video: mpeg4, yuv420p, 720x576 [PAR 1:1 DAR 5:4], 25.00 tb(r)
Stream #0.1: Audio: mp3, 48000 Hz, stereo, s16, 128 kb/s

Check the movie's sound/language:

Contents of download:

1400 megabyte in 2 files
Las 100 mejores jugadas de la NBA
  • Las.100.mejores.jugadas.de.la.NBA.[DivxTOTAL]/Las.100.mejores.jugadas.de.la.NBA.[DivxTOTAL].avi (1400 MB)
  • Las.100.mejores.jugadas.de.la.NBA.[DivxTOTAL]/Las.100.mejores.jugadas.de.la.NBA.[DivxTOTAL].srt (58.5 KB)

Comments:


Add report or comment (250 words maximum)

I'd like:  
Type text from captcha: