Our friends

Diamond Rio - One More Day (2001) torrent

Torrent info

Date 2010-12-16 05:58:04
Category Music
Hash aaad3a20dae9e11b2fbe995659f3a8f0df5a9c2c
Seeds / Leechs -1 / -1 refresh
Full size 108 MB
Tracker http://tracker.openbittorrent.com/scrape
Tags diamond more 2001
Download – Diamond Rio - One More Day (2001) Download direct – no client needed

Related torrents

World Of Warcraft Guides, Hacks, Cheats, And More
Dil Chahta Hai (2001 MP3 VBR 320) (VMR)
Nick Cave & The Bad Seeds - No More Shall We Part (2001)
More Exceptional C++ - Programming Problems, And Solutions (2001) - allbooksfree tk

Torrent's content info

20 seconds audio samples

Diamond Rio - One More Day - 08 - I Think I Love You_sample.mp3
Audio file info Duration: 00:03:20.90, start: 0.000000, bitrate: 319 kb/s
Stream #0.0: Audio: mp3, 44100 Hz, 2 channels, s16, 320 kb/s
Diamond Rio - One More Day - 04 - I'm Already Gone_sample.mp3
Audio file info Duration: 00:03:29.09, start: 0.000000, bitrate: 319 kb/s
Stream #0.0: Audio: mp3, 44100 Hz, 2 channels, s16, 320 kb/s
Diamond Rio - One More Day - 09 - Hearts Against The Wind_sample.mp3
Audio file info Duration: 00:04:59.05, start: 0.000000, bitrate: 319 kb/s
Stream #0.0: Audio: mp3, 44100 Hz, 2 channels, s16, 320 kb/s
Diamond Rio - One More Day - 03 - Sweet Summer_sample.mp3
Audio file info Duration: 00:04:29.97, start: 0.000000, bitrate: 319 kb/s
Stream #0.0: Audio: mp3, 44100 Hz, 2 channels, s16, 320 kb/s

Contents of download:

108 megabyte in 14 files
Diamond Rio - One More Day (2001)
  • Diamond Rio - One More Day (2001)/Diamond Rio - One More Day - 09 - Hearts Against The Wind.mp3 (11 MB)
  • Diamond Rio - One More Day (2001)/Diamond Rio - One More Day - 03 - Sweet Summer.mp3 (10 MB)
  • Diamond Rio - One More Day (2001)/Diamond Rio - One More Day - 12 - I'm Trying.mp3 (10 MB)
  • Diamond Rio - One More Day (2001)/Diamond Rio - One More Day - 11 - The Love Of A Woman.mp3 (9.1 MB)
  • Diamond Rio - One More Day (2001)/Diamond Rio - One More Day - 10 - You Make Me Feel.mp3 (8.9 MB)
  • Diamond Rio - One More Day (2001)/Diamond Rio - One More Day - 02 - One More Day.mp3 (8.2 MB)
  • Diamond Rio - One More Day (2001)/Diamond Rio - One More Day - 07 - Here I Go Fallin'.mp3 (8 MB)
  • Diamond Rio - One More Day (2001)/Diamond Rio - One More Day - 04 - I'm Already Gone.mp3 (8 MB)
  • Diamond Rio - One More Day (2001)/Diamond Rio - One More Day - 08 - I Think I Love You.mp3 (7.7 MB)
  • Diamond Rio - One More Day (2001)/Diamond Rio - One More Day - 13 - Stuff.mp3 (7 MB)
  • Diamond Rio - One More Day (2001)/Diamond Rio - One More Day - 06 - 'Til The Heartache's Gone.mp3 (6.8 MB)
  • Diamond Rio - One More Day (2001)/Diamond Rio - One More Day - 05 - I Could Do It With My Eyes Closed.mp3 (6.7 MB)
  • Diamond Rio - One More Day (2001)/Diamond Rio - One More Day - 01 - That's Just That.mp3 (5.8 MB)
  • Diamond Rio - One More Day (2001)/AlbumArt.jpg (11.4 KB)

Comments:


Add report or comment (250 words maximum)

I'd like:  
Type text from captcha: