Our friends

Anubis - 230503 (2009) Australian Cinematic Progressive Rock torrent

Torrent info

Date 2010-12-16 17:55:53
Category Music
Hash a09ee1f0b1e07efd2768643c25978799edc6e8ba
Seeds / Leechs -1 / -1 refresh
Full size 161 MB
Tracker http://tracker.ilibr.org:6969/scrape
Tags anubis 230503 2009 australian cinematic progressive rock

Related torrents

Curved Air - Second Album (Great progressive rock (IMO) 1971)
Riff Interactive guitar tutorial on Progressive Rock
Children Of Nova - The Complexity Of Light - 2009-320k(awesome Progressive Rock)
COFR - Off Freedom (2009) Post-Rock, Progressive Rock, Instrumental Rock, Guitar Virtuoso

Torrent's content info

20 seconds audio samples

10 Disinfected and Abused_sample.mp3
Audio file info Duration: 00:17:37.05, start: 0.000000, bitrate: 320 kb/s
Stream #0.0: Audio: mp3, 44100 Hz, stereo, s16, 320 kb/s
05 Anonymity_sample.mp3
Audio file info Duration: 00:05:00.65, start: 0.000000, bitrate: 320 kb/s
Stream #0.0: Audio: mp3, 44100 Hz, stereo, s16, 320 kb/s
06 The Bond of Mutual Distrust_sample.mp3
Audio file info Duration: 00:09:35.69, start: 0.000000, bitrate: 320 kb/s
Stream #0.0: Audio: mp3, 44100 Hz, stereo, s16, 320 kb/s
01 The Deepest Wound_sample.mp3
Audio file info Duration: 00:04:15.78, start: 0.000000, bitrate: 320 kb/s
Stream #0.0: Audio: mp3, 44100 Hz, stereo, s16, 320 kb/s

Contents of download:

161 megabyte in 23 files
Anubis - 230503 (2009) Australian Cinematic Progressive Rock
  • Anubis (2009) - 230503/01 The Deepest Wound.mp3 (10 MB)
  • Anubis (2009) - 230503/_____padding_file_0_if you see this file, please update to BitComet 0.85 or above____ (0.2 MB)
  • Anubis (2009) - 230503/02 Leaving Here Tonight.mp3 (11 MB)
  • Anubis (2009) - 230503/_____padding_file_1_if you see this file, please update to BitComet 0.85 or above____ (0.2 MB)
  • Anubis (2009) - 230503/03 Breaking Water.mp3 (10 MB)
  • Anubis (2009) - 230503/_____padding_file_2_if you see this file, please update to BitComet 0.85 or above____ (0.1 MB)
  • Anubis (2009) - 230503/04 Waterfall.mp3 (12 MB)
  • Anubis (2009) - 230503/_____padding_file_3_if you see this file, please update to BitComet 0.85 or above____ (87.2 KB)
  • Anubis (2009) - 230503/05 Anonymity.mp3 (11 MB)
  • Anubis (2009) - 230503/_____padding_file_4_if you see this file, please update to BitComet 0.85 or above____ (31.7 KB)
  • Anubis (2009) - 230503/06 The Bond of Mutual Distrust.mp3 (22 MB)
  • Anubis (2009) - 230503/_____padding_file_5_if you see this file, please update to BitComet 0.85 or above____ (39.9 KB)
  • Anubis (2009) - 230503/07 The Doctor.mp3 (8.2 MB)
  • Anubis (2009) - 230503/_____padding_file_6_if you see this file, please update to BitComet 0.85 or above____ (2.9 KB)
  • Anubis (2009) - 230503/08 Flying-Falling.mp3 (6.6 MB)
  • Anubis (2009) - 230503/_____padding_file_7_if you see this file, please update to BitComet 0.85 or above____ (0.1 MB)
  • Anubis (2009) - 230503/09 The Collapse.mp3 (28 MB)
  • Anubis (2009) - 230503/_____padding_file_8_if you see this file, please update to BitComet 0.85 or above____ (0.2 MB)
  • Anubis (2009) - 230503/10 Disinfected and Abused.mp3 (40 MB)
  • Anubis (2009) - 230503/_____padding_file_9_if you see this file, please update to BitComet 0.85 or above____ (0.2 MB)
  • Anubis (2009) - 230503/cover.jpg (13.1 KB)
  • Anubis (2009) - 230503/_____padding_file_10_if you see this file, please update to BitComet 0.85 or above____ (0.2 MB)
  • Anubis (2009) - 230503/desktop.ini (0 KB)

Comments:


Add report or comment (250 words maximum)

I'd like:  
Type text from captcha: