Our friends

Open.Graves.2009.DVDRip.XViD-ReenCoTRiN torrent

Torrent info

Date 2010-12-24 17:53:50
Category Movies
Hash 1336af94c1b3920bf5893e56eb372f6e84d485ce
Seeds / Leechs 3 / 0 refresh
Full size 701 MB
Tracker http://9.rarbg.com:2710/scrape
Tags open graves 2009 dvdrip xvid reencotrin
Download – Open.Graves.2009.DVDRip.XViD-ReenCoTRiN Download direct – no client needed

Related torrents

The Open Road (2009) DvdRip-Xvid-ExtraScene RG(
Phantom Pain 2009 DVDRip XViD-ReenCoTRiN avi - ( www torrentday com )
Open Graves (2009 DVDRip XviD DivXNL-Team(dutch subs NL)
Open.Graves.2009.DVDRip.XViD-ReenCoTRiN

Torrent's content info

reencitrin-gravecitrin.avi

Open.Graves.2009.DVDRip.XViD-ReenCoTRiN screenshot
  • Screenshot 1
  • Screenshot 2
  • Screenshot 3
  • Screenshot 4
  • Screenshot 5
  • Screenshot 6
  • Screenshot 7
  • Screenshot 8
  • Screenshot 9

Duration: 01:24:29.04, start: 0.000000, bitrate: 1160 kb/s
Stream #0.0: Video: mpeg4, yuv420p, 592x320 [PAR 1:1 DAR 37:20], 25 tbr, 25 tbn, 25 tbc
Stream #0.1: Audio: ac3, 48000 Hz, 5.1, s16, 448 kb/s

Check the movie's sound/language:

Text sample Text sample from reencitrin-gravecitrin.nfo

_____ _____ _______ _____ _ _ _
| __ \ / ____| |__ __| __ \(_) \ | |
| |__) |___ ___ _ __ | | ___ | | | |__) |_| \| |
| _ // _ \/ _ \ '_ \| | / _ \| | | _ /| | . ` |
| | \ \ __/ __/ | | | |___| (_) | | | | \ \| | |\ |
|_| \_\___|\___|_| |_|\_____\___/|_| |_| \_\_|_| \_|

Open Graves (2009)

http://akas.imdb.com/title/tt0870937/

592x320|800 kbps
English|ac3 5.1
84min

Notes: CiTRiN rocks nuts! Top #1 german reencode crap!
Wanted: secure affilsites, leggit sources (not reendoded dvds)!
Special Greets to Scourwanker, gayrium and the whole CRAP Team!

citrus@reencode.com




Contents of download:

701 megabyte in 2 files
Open.Graves.2009.DVDRip.XViD-ReenCoTRiN
  • Open.Graves.2009.DVDRip.XViD-ReenCoTRiN/reencitrin-gravecitrin.avi (701 MB)
  • Open.Graves.2009.DVDRip.XViD-ReenCoTRiN/reencitrin-gravecitrin.nfo (0.6 KB)

Comments:


Add report or comment (250 words maximum)

I'd like:  
Type text from captcha: