Our friends

Desant na Drvar [1963] domaci film torrent

Torrent info

Date 2010-12-24 17:57:37
Category Movies
Hash 8f7aac758f4872721b4886ee73c4ee99eca2176e
Seeds / Leechs -1 / -1 refresh
Full size 607 MB
Tracker http://tracker.openbittorrent.com/scrape
Tags desant drvar 1963 domaci film
Download – Desant na Drvar [1963] domaci film Download direct – no client needed

Related torrents

LOAD Magazine issue 13 - w/ exclusive Dark Knight cover - music, film, art, style, tv and games
X.Files.Le.Film.French.DVDRip.XviD
All Digital Film Tools Photoshop Plugins
Nicija-zemlja-[2001]-No-Mans-Land-[domaci-film]

Torrent's content info

Desant by www.yubraca.net.mkv

Desant na Drvar [1963] domaci film screenshot
  • Screenshot 1
  • Screenshot 2
  • Screenshot 3
  • Screenshot 4
  • Screenshot 5
  • Screenshot 6
  • Screenshot 7
  • Screenshot 8
  • Screenshot 9

Duration: 01:40:55.76, start: 0.000000, bitrate: N/A
Stream #0.0(eng): Video: h264, yuv420p, 640x416, 24.99 tb(r)
Stream #0.1(srp): Audio: aac, 48000 Hz, stereo, s16
Stream #0.2(srp): Audio: ac3, 48000 Hz, stereo, s16
Stream #0.3(srp): Subtitle: dvdsub
Stream #0.4(slv): Subtitle: dvdsub

Check the movie's sound/language:

Contents of download:

607 megabyte in 1 files
Desant na Drvar [1963] domaci film
  • Desant na Drvar [1963] domaci film/www.yubraca.net/Desant by www.yubraca.net.mkv (607 MB)

Comments:


Add report or comment (250 words maximum)

I'd like:  
Type text from captcha: