Our friends

Maanam - Koncert Maanam i Goscie (25-lecie zespolu) (2001) [DVD9 torrent

Torrent info

Date 2010-12-26 08:02:03
Category Movies
Hash d65637d6b37198f0c27275aae84d495034e782ad
Seeds / Leechs 3 / 9 refresh
Full size 6637 MB
Tracker http://tracker.thepiratebay.org/announce
Tags maanam koncert maanam goscie lecie zespolu 2001 dvd9

Related torrents

Maanam - Koncert Maanam i Goscie (25-lecie zespolu) (2001) [DVD9
The Brian Setzer Orchestra - Live in Japan (2001) [DVD9]
Neil Young & Crazy Horse - Live In Japan 2001 (2001) [DVD9]
Tina Turner - Live in Amsterdam (2001) [DVD9]

Torrent's content info

VTS_01_1.VOB

Maanam - Koncert Maanam i Goscie (25-lecie zespolu) (2001) [DVD9 screenshot
  • Screenshot 1
  • Screenshot 2
  • Screenshot 3
  • Screenshot 4
  • Screenshot 5
  • Screenshot 6
  • Screenshot 7

Duration: 00:25:15.50, start: 0.336711, bitrate: 5667 kb/s
Stream #0.0[0x1e0]: Video: mpeg2video, yuv420p, 720x576 [PAR 16:15 DAR 4:3], 8000 kb/s, 25.00 tb(r)
Stream #0.1[0x20]: Subtitle: dvdsub
Stream #0.2[0x80]: Audio: ac3, 48000 Hz, 5:1, s16, 448 kb/s

Check the movie's sound/language:

Contents of download:

6637 megabyte in 17 files
Maanam - Koncert Maanam i Goscie (25-lecie zespolu) (2001) [DVD9
  • Maanam - Koncert Maanam i Goscie (25-lecie zespolu) [2001,Rock,DVD9]/Cover.jpg (3.5 MB)
  • Maanam - Koncert Maanam i Goscie (25-lecie zespolu) [2001,Rock,DVD9]/VIDEO_TS/VIDEO_TS.BUP (12 KB)
  • Maanam - Koncert Maanam i Goscie (25-lecie zespolu) [2001,Rock,DVD9]/VIDEO_TS/VIDEO_TS.IFO (12 KB)
  • Maanam - Koncert Maanam i Goscie (25-lecie zespolu) [2001,Rock,DVD9]/VIDEO_TS/VIDEO_TS.VOB (26 MB)
  • Maanam - Koncert Maanam i Goscie (25-lecie zespolu) [2001,Rock,DVD9]/VIDEO_TS/VTS_01_0.BUP (72 KB)
  • Maanam - Koncert Maanam i Goscie (25-lecie zespolu) [2001,Rock,DVD9]/VIDEO_TS/VTS_01_0.IFO (72 KB)
  • Maanam - Koncert Maanam i Goscie (25-lecie zespolu) [2001,Rock,DVD9]/VIDEO_TS/VTS_01_0.VOB (71 MB)
  • Maanam - Koncert Maanam i Goscie (25-lecie zespolu) [2001,Rock,DVD9]/VIDEO_TS/VTS_01_1.VOB (1024 MB)
  • Maanam - Koncert Maanam i Goscie (25-lecie zespolu) [2001,Rock,DVD9]/VIDEO_TS/VTS_01_2.VOB (1024 MB)
  • Maanam - Koncert Maanam i Goscie (25-lecie zespolu) [2001,Rock,DVD9]/VIDEO_TS/VTS_01_3.VOB (1024 MB)
  • Maanam - Koncert Maanam i Goscie (25-lecie zespolu) [2001,Rock,DVD9]/VIDEO_TS/VTS_01_4.VOB (1012 MB)
  • Maanam - Koncert Maanam i Goscie (25-lecie zespolu) [2001,Rock,DVD9]/VIDEO_TS/VTS_02_0.BUP (40 KB)
  • Maanam - Koncert Maanam i Goscie (25-lecie zespolu) [2001,Rock,DVD9]/VIDEO_TS/VTS_02_0.IFO (40 KB)
  • Maanam - Koncert Maanam i Goscie (25-lecie zespolu) [2001,Rock,DVD9]/VIDEO_TS/VTS_02_0.VOB (20 KB)
  • Maanam - Koncert Maanam i Goscie (25-lecie zespolu) [2001,Rock,DVD9]/VIDEO_TS/VTS_02_1.VOB (1024 MB)
  • Maanam - Koncert Maanam i Goscie (25-lecie zespolu) [2001,Rock,DVD9]/VIDEO_TS/VTS_02_2.VOB (1024 MB)
  • Maanam - Koncert Maanam i Goscie (25-lecie zespolu) [2001,Rock,DVD9]/VIDEO_TS/VTS_02_3.VOB (405 MB)

Comments:


Add report or comment (250 words maximum)

I'd like:  
Type text from captcha: