Our friends

Domani è un altra truffa (2006) (TvRip - DivX - Ita Mp3)Commedia torrent

Torrent info

Date 2010-12-28 06:02:11
Category Movies
Hash 67b7615d0086af1313dabd8c18c7f9f344da135b
Seeds / Leechs -1 / -1 refresh
Full size 701 MB
Tracker http://tracker.publicbt.com/scrape
Tags domani altra truffa 2006 tvrip divx commedia

Related torrents

Blu Notte-Collusioni tra Mafia e politica[TVRip-DivX-Ita][Tntvillage.Scambioetico]
Californication.S02E05.TVRip.DivX-Dak.avi
Azur.And.Asmar.2006.Swedish.DivX.BigMac@TorrentStart
Keroro s1e021-030(tvRip-DivX-ITA) (www tntvillage scambioetico org)

Torrent's content info

Domani è un altra truffa.avi

Domani è un altra truffa (2006) (TvRip - DivX - Ita Mp3)Commedia screenshot
  • Screenshot 1
  • Screenshot 2
  • Screenshot 3
  • Screenshot 4
  • Screenshot 5
  • Screenshot 6
  • Screenshot 7
  • Screenshot 8
  • Screenshot 9

Duration: 01:34:11.64, start: 0.000000, bitrate: 1040 kb/s
Stream #0.0: Video: mpeg4, yuv420p, 640x368 [PAR 1:1 DAR 40:23], 25.00 tb(r)
Stream #0.1: Audio: mp3, 44100 Hz, stereo, s16, 128 kb/s

Check the movie's sound/language:

Contents of download:

701 megabyte in 1 files
Domani è un altra truffa (2006) (TvRip - DivX - Ita Mp3)Commedia
  • Domani è un altra truffa.avi (701 MB)

Comments:


Add report or comment (250 words maximum)

I'd like:  
Type text from captcha: