Our friends

Crystal Fighters - Star of Love 2010 (320kbps) torrent

Torrent info

Date 2010-12-28 06:17:13
Category Music
Hash e5d086d54381c5a7f3424cbeadd6722ccdc15d0a
Seeds / Leechs -1 / -1 refresh
Full size 98 MB
Tracker http://tracker.publicbt.com/scrape
Tags crystal fighters star love 2010 320kbps

Related torrents

Freedom Fighters ( Star Trek Trailer Music)
Ella Fitzgerald - Hello Love (1960)@320kbps RESEED
Armin Van Buuren ft.Sharon Den Adel - In And Out of Love [Remixes] (2010)-320kbps-[GRG]-
Feed Me & Crystal Fighters - Love Is All I Got (Original Mix

Torrent's content info

20 seconds audio samples

02 Xtatic Truth_sample.mp3
Audio file info Duration: 00:03:38.50, start: 0.000000, bitrate: 319 kb/s
Stream #0.0: Audio: mp3, 48000 Hz, stereo, s16, 320 kb/s
06 In the Summer_sample.mp3
Audio file info Duration: 00:03:56.28, start: 0.000000, bitrate: 320 kb/s
Stream #0.0: Audio: mp3, 48000 Hz, stereo, s16, 320 kb/s
07 At Home_sample.mp3
Audio file info Duration: 00:05:06.56, start: 0.000000, bitrate: 319 kb/s
Stream #0.0: Audio: mp3, 48000 Hz, stereo, s16, 320 kb/s
11 Follow (album version)_sample.mp3
Audio file info Duration: 00:03:16.59, start: 0.000000, bitrate: 319 kb/s
Stream #0.0: Audio: mp3, 48000 Hz, stereo, s16, 320 kb/s

Text sample Text sample from seed.txt


.-. . .--. .
( ) | o : _|_
`-. .--.--. .-. |.-. . .--. .-.. | --..--..-. | .--. .-.
( )| | |( )|-.' | | |( | : || (.-' | | |( )
`-' ' ' `-`-' ' `--' `-' `-`-`| `--'' `--'`-'' `-`-'`-
._.'



.-. . .
( ) | | o
`-. .-. . ..--. | .-. .-.. .-. | . .--. .-.
( )( ) | |`--. | (.-'( |( ) | | `--.(.-'
`-' `-'`-`--|`--' '---'`--'`-`| `-'`-`--' `-`--' `--'
; ._.'
`-' ...

Read full text


Contents of download:

98 megabyte in 13 files
Crystal Fighters - Star of Love 2010 (320kbps)
  • Crystal Fighters/Star Of Love/07 At Home.mp3 (12 MB)
  • Crystal Fighters/Star Of Love/09 Swallow (album version).mp3 (10 MB)
  • Crystal Fighters/Star Of Love/10 With You.mp3 (10 MB)
  • Crystal Fighters/Star Of Love/01 Solar System.mp3 (9.1 MB)
  • Crystal Fighters/Star Of Love/06 In the Summer.mp3 (9 MB)
  • Crystal Fighters/Star Of Love/05 Plage.mp3 (8.8 MB)
  • Crystal Fighters/Star Of Love/03 I Do This Everyday.mp3 (8.6 MB)
  • Crystal Fighters/Star Of Love/02 Xtatic Truth.mp3 (8.3 MB)
  • Crystal Fighters/Star Of Love/04 Champion Sound (alternative mix).mp3 (7.9 MB)
  • Crystal Fighters/Star Of Love/11 Follow (album version).mp3 (7.5 MB)
  • Crystal Fighters/Star Of Love/08 I Love London.mp3 (6.4 MB)
  • Crystal Fighters/Star Of Love/1286277842_cover.jpg (56.3 KB)
  • Crystal Fighters/seed.txt (1.6 KB)

Comments:


Add report or comment (250 words maximum)

I'd like:  
Type text from captcha: