Our friends

BUJU BANTON BEFORE THE DAWN 2010 torrent

Torrent info

Date 2011-01-01 05:53:30
Category Music
Hash c70702d02c7bc5b1d268a0c644a024fd096b5ff1
Seeds / Leechs -1 / -1 refresh
Full size 56 MB
Tracker http://pow7.com/scrape
Tags buju banton before dawn 2010
Download – BUJU BANTON BEFORE THE DAWN 2010 Download direct – no client needed

Related torrents

Buju Banton & Friends - Retail - 2Cd - 2004
VA-Buju Banton Presents-Jamrock Classics Vol 1-Retail CD-2008-RKS
dj_assassin-brawling_riddim_mix-d'angel_buju_banton_munga_mr_g_
Beyonce Ft Buju Banton - Single Ladies (Put A Ring On It) (Remix) Promoleak.com ANd DJLeak.com PRO

Torrent's content info

20 seconds audio samples

04-buju_banton-battered_and_bruised_sample.mp3
Audio file info Duration: 00:03:46.31, start: 0.000000, bitrate: 159 kb/s
Stream #0.0: Audio: mp3, 44100 Hz, stereo, s16, 160 kb/s
10-buju_banton-innocent_sample.mp3
Audio file info Duration: 00:04:20.88, start: 0.000000, bitrate: 127 kb/s
Stream #0.0: Audio: mp3, 44100 Hz, stereo, s16, 128 kb/s
03-buju_banton-do_good_sample.mp3
Audio file info Duration: 00:06:43.54, start: 0.000000, bitrate: 191 kb/s
Stream #0.0: Audio: mp3, 44100 Hz, stereo, s16, 192 kb/s
01-buju_banton-rasta_cant_go_sample.mp3
Audio file info Duration: 00:04:29.81, start: 0.000000, bitrate: 151 kb/s
Stream #0.0: Audio: mp3, 44100 Hz, stereo, s16, 128 kb/s

Contents of download:

56 megabyte in 11 files
BUJU BANTON BEFORE THE DAWN 2010
  • Buju_Banton-Before_The_Dawn-2010/03-buju_banton-do_good.mp3 (9.2 MB)
  • Buju_Banton-Before_The_Dawn-2010/05-buju_banton-bondage.mp3 (6 MB)
  • Buju_Banton-Before_The_Dawn-2010/07-buju_banton-life.mp3 (6 MB)
  • Buju_Banton-Before_The_Dawn-2010/02-buju_banton-in_the_air.mp3 (5.6 MB)
  • Buju_Banton-Before_The_Dawn-2010/08-buju_banton-no_smoking_at_all.mp3 (5.5 MB)
  • Buju_Banton-Before_The_Dawn-2010/06-buju_banton-struggle_together.mp3 (5.4 MB)
  • Buju_Banton-Before_The_Dawn-2010/09-buju_banton-try_life.mp3 (5.2 MB)
  • Buju_Banton-Before_The_Dawn-2010/01-buju_banton-rasta_cant_go.mp3 (4.9 MB)
  • Buju_Banton-Before_The_Dawn-2010/04-buju_banton-battered_and_bruised.mp3 (4.3 MB)
  • Buju_Banton-Before_The_Dawn-2010/10-buju_banton-innocent.mp3 (4 MB)
  • Buju_Banton-Before_The_Dawn-2010/1286773461-41peCLQ4-qL.jpg (17.5 KB)

Comments:


Add report or comment (250 words maximum)

I'd like:  
Type text from captcha: