Our friends

JLS - Outta This World (2010) @ 320kbps torrent

Torrent info

Date 2011-01-05 05:53:22
Category Music
Hash b33cc09e07eaa31692eba4b7079ce1be57701fab
Seeds / Leechs -1 / -1 refresh
Full size 111 MB
Tracker http://genesis.1337x.org:1337/scrape
Tags outta this world 2010 320kbps
Download – JLS - Outta This World (2010) @ 320kbps Download direct – no client needed

Related torrents

Jonny Lang - Wander this world
Three 6 Mafia - Chapter 2, World Domination [320kbps] 1997 [h33t][DJ Macdaddy]
Jimmy Eat World-Chase This Light[FullCD][320kbps]-FiNsTeRc
2009 New Money Mind Outta This World

Torrent's content info

20 seconds audio samples

02 Eyes Wide Shut_sample.mp3
Audio file info Duration: 00:03:51.28, start: 0.000000, bitrate: 320 kb/s
Stream #0.0: Audio: mp3, 44100 Hz, stereo, s16, 320 kb/s
05 Work_sample.mp3
Audio file info Duration: 00:03:08.34, start: 0.000000, bitrate: 320 kb/s
Stream #0.0: Audio: mp3, 44100 Hz, stereo, s16, 320 kb/s
13 That's Where I'm Coming From_sample.mp3
Audio file info Duration: 00:03:43.37, start: 0.000000, bitrate: 320 kb/s
Stream #0.0: Audio: mp3, 44100 Hz, stereo, s16, 320 kb/s
06 I Know What She Like_sample.mp3
Audio file info Duration: 00:03:18.81, start: 0.000000, bitrate: 320 kb/s
Stream #0.0: Audio: mp3, 44100 Hz, stereo, s16, 320 kb/s

Contents of download:

111 megabyte in 14 files
JLS - Outta This World (2010) @ 320kbps
  • JLS - Outta This World 2010/01 The Club Is Alive.mp3 (8.5 MB)
  • JLS - Outta This World 2010/02 Eyes Wide Shut.mp3 (8.8 MB)
  • JLS - Outta This World 2010/03 Outta This World.mp3 (8.6 MB)
  • JLS - Outta This World 2010/04 That's My Girl.mp3 (7.1 MB)
  • JLS - Outta This World 2010/05 Work.mp3 (7.2 MB)
  • JLS - Outta This World 2010/06 I Know What She Like.mp3 (7.6 MB)
  • JLS - Outta This World 2010/07 Love You More.mp3 (8.7 MB)
  • JLS - Outta This World 2010/08 Other Side of the World.mp3 (7 MB)
  • JLS - Outta This World 2010/09 Better For You.mp3 (8.4 MB)
  • JLS - Outta This World 2010/10 Superhero.mp3 (7.6 MB)
  • JLS - Outta This World 2010/11 Love At War.mp3 (8.2 MB)
  • JLS - Outta This World 2010/12 Don't Talk About Love.mp3 (7.6 MB)
  • JLS - Outta This World 2010/13 That's Where I'm Coming From.mp3 (8.5 MB)
  • JLS - Outta This World 2010/14 The Last Song.mp3 (7.2 MB)

Comments:


Add report or comment (250 words maximum)

I'd like:  
Type text from captcha: