Our friends

Bruno Mars - Count on me MP3 torrent

Torrent info

Date 2011-01-16 10:00:20
Category Music
Hash ec2e9f6d0ad50c22d8d86bbbbc405c15694e94d0
Seeds / Leechs 56 / 25 refresh
Full size 10 MB
Tracker http://tracker.thepiratebay.org/announce
Tags bruno mars count
Download – Bruno Mars - Count on me MP3 Download direct – no client needed

Related torrents

B o B - Nothin On You Feat Bruno Mars-MIXFIEND
B o B ft Bruno Mars - Nothin On You (2010) (Video) (mrsjs)
Bruno Mars - Doo-Wops And Hooligans.(2010).(pixie09)
Bruno Mars - Count on me MP3

Torrent's content info

20 seconds audio samples

09-bruno_mars-count_on_me_sample.mp3
Audio file info Duration: 00:03:17.51, start: 0.000000, bitrate: 179 kb/s
Stream #0.0: Audio: mp3, 44100 Hz, 2 channels, s16, 32 kb/s
Revolution - SONSOFDAY_sample.mp3
Audio file info Duration: 00:03:45.62, start: 0.000000, bitrate: 192 kb/s
Stream #0.0: Audio: mp3, 44100 Hz, 2 channels, s16, 192 kb/s

Contents of download:

10 megabyte in 3 files
Bruno Mars - Count on me MP3
  • Bruno Mars - Count on me MP3/Revolution - SONSOFDAY.mp3 (5.2 MB)
  • Bruno Mars - Count on me MP3/09-bruno_mars-count_on_me.mp3 (4.2 MB)
  • Bruno Mars - Count on me MP3/SONSOFDAY.jpg (0.5 MB)

Comments:


Add report or comment (250 words maximum)

I'd like:  
Type text from captcha: