Our friends

MAGIX Soundpool DVD Collection 17 - Sample Library - Sound Archi torrent

Torrent info

Date 2011-01-19 00:01:03
Category Music
Hash d84f863b509bb5cb9404dd56f1556f01dc6bdbfc
Seeds / Leechs 51 / 11 refresh
Full size 4265 MB
Tracker http://tracker.thepiratebay.org/announce
Tags magix soundpool collection sample library sound archi

Related torrents

The Street Odyssey Sample Library "LOOPS AND KITS CULLED FROM THE STREET ODYSSEY BEATTAPE"
MAGIX Soundpool DVD Collection 17 - Sample Library - Sound Archi
Magix Soundpool Collection Vol 17 [Multilanguage][DVD9]
Softrave Hang Loops Sample Library vol 1 demo loops

Torrent's content info

20 seconds audio samples

Big_Old_Finger 6.wav_sample.mp3
Audio file info Duration: 00:00:05.34, bitrate: 1411 kb/s
Stream #0.0: Audio: pcm_s16le, 44100 Hz, stereo, s16, 1411 kb/s
Big_Old_Finger 2.wav_sample.mp3
Audio file info Duration: 00:00:05.34, bitrate: 1411 kb/s
Stream #0.0: Audio: pcm_s16le, 44100 Hz, stereo, s16, 1411 kb/s
ClimbUpBass 3.wav_sample.mp3
Audio file info Duration: 00:00:10.67, bitrate: 1411 kb/s
Stream #0.0: Audio: pcm_s16le, 44100 Hz, stereo, s16, 1411 kb/s
Ballad 4.wav_sample.mp3
Audio file info Duration: 00:00:10.67, bitrate: 1411 kb/s
Stream #0.0: Audio: pcm_s16le, 44100 Hz, stereo, s16, 1411 kb/s

Text sample Text sample from info.txt

Installation (how to add to Music Maker):

- Unpack the rar files with an archiver of your choice (7z is good)
- Move the folders to a destination of your choice
- Open Music Maker, mark the soundpools tab, click add styles and specify the location of the files




Contents of download:

4265 megabyte in 13 files
MAGIX Soundpool DVD Collection 17 - Sample Library - Sound Archi
  • MAGIX Soundpool DVD Collection 17 - Sample Library - Sound Archive for Music Maker/Breakbeat Vol. 1.rar (440 MB)
  • MAGIX Soundpool DVD Collection 17 - Sample Library - Sound Archive for Music Maker/Jazz Vol. 1.rar (435 MB)
  • MAGIX Soundpool DVD Collection 17 - Sample Library - Sound Archive for Music Maker/RockAlternative Vol. 3.rar (433 MB)
  • MAGIX Soundpool DVD Collection 17 - Sample Library - Sound Archive for Music Maker/TechnoTrance Vol. 13.rar (427 MB)
  • MAGIX Soundpool DVD Collection 17 - Sample Library - Sound Archive for Music Maker/MovieScore Vol. 8.rar (404 MB)
  • MAGIX Soundpool DVD Collection 17 - Sample Library - Sound Archive for Music Maker/HipHop Vol. 12.rar (388 MB)
  • MAGIX Soundpool DVD Collection 17 - Sample Library - Sound Archive for Music Maker/Dubstep Vol. 1.rar (376 MB)
  • MAGIX Soundpool DVD Collection 17 - Sample Library - Sound Archive for Music Maker/Chillout Vol. 5.rar (361 MB)
  • MAGIX Soundpool DVD Collection 17 - Sample Library - Sound Archive for Music Maker/DanceElectro Vol. 9.rar (356 MB)
  • MAGIX Soundpool DVD Collection 17 - Sample Library - Sound Archive for Music Maker/Minimal DeepHouse Vol. 9.rar (353 MB)
  • MAGIX Soundpool DVD Collection 17 - Sample Library - Sound Archive for Music Maker/[Demo Songs].rar (292 MB)
  • MAGIX Soundpool DVD Collection 17 - Sample Library - Sound Archive for Music Maker/check.sfv (0.3 KB)
  • MAGIX Soundpool DVD Collection 17 - Sample Library - Sound Archive for Music Maker/info.txt (0.3 KB)

Comments:


Add report or comment (250 words maximum)

I'd like:  
Type text from captcha: