Our friends

Junkyard Dog 2010 DVDRip x264-SHiTTy torrent

Torrent info

Date 2011-01-26 01:35:20
Category Movies
Hash 5cd7fe5864edde244564adf1bead8db976b1a125
Seeds / Leechs -1 / -1 refresh
Full size 699 MB
Tracker http://exodus.1337x.org/scrape
Tags junkyard 2010 dvdrip x264 shitty
Download – Junkyard Dog 2010 DVDRip x264-SHiTTy Download direct – no client needed

Related torrents

True Legend 2010 DVDRip X264 AC3-gandarloda
The Town 2010 DvDrip x264 FILTERED 450MB-scOrp
Insane 2010 DvDRip x264 Feel-Free
Legacy.2010.DvDRip.x264.Feel-Free

Torrent's content info

Junkyard.Dog.2010.DVDRip.x264-SHiTTy.mkv

Junkyard Dog 2010 DVDRip x264-SHiTTy screenshot
  • Screenshot 1
  • Screenshot 2
  • Screenshot 3
  • Screenshot 4
  • Screenshot 5
  • Screenshot 6
  • Screenshot 7
  • Screenshot 8
  • Screenshot 9

Duration: 01:31:27.44, start: 0.000000, bitrate: N/A
Stream #0.0(eng): Video: h264, yuv420p, 720x416, 25.00 tb(r)
Stream #0.1: Audio: ac3, 48000 Hz, stereo, s16

Check the movie's sound/language:

Contents of download:

699 megabyte in 1 files
Junkyard Dog 2010 DVDRip x264-SHiTTy
  • Junkyard.Dog.2010.DVDRip.x264-SHiTTy.mkv (699 MB)

Comments:


Add report or comment (250 words maximum)

I'd like:  
Type text from captcha: