Our friends

Thrice-The Artist in the Ambulance 320 KBPS torrent

Torrent info

Date 2011-01-26 12:53:52
Category Music
Hash f18e6b20610f772bf5027f829db82547d885a2f2
Seeds / Leechs -1 / -1 refresh
Full size 91 MB
Tracker http://tracker.openbittorrent.com/scrape
Tags thrice artist ambulance kbps
Download – Thrice-The Artist in the Ambulance 320 KBPS Download direct – no client needed

Related torrents

J B Lenoir - Vietnam Blues, [LOSSY - Mp3 256 Kbps] [Tntvillage Scambioetico]
Set It Straight - Live Your Heart And Never Follow (2006) MP3 @ 128 kbps
Between the Buried and Me - Alaska (2005) [320 kbps]
Coil - And The Ambulance Died In His Arms (192 kbps)

Torrent's content info

20 seconds audio samples

04 - Thrice - Silhouette_sample.mp3
Audio file info Duration: 00:03:08.16, start: 0.000000, bitrate: 319 kb/s
Stream #0.0: Audio: mp3, 44100 Hz, stereo, s16, 320 kb/s
10 - Thrice - The Artist In The Ambulance_sample.mp3
Audio file info Duration: 00:03:39.29, start: 0.000000, bitrate: 319 kb/s
Stream #0.0: Audio: mp3, 44100 Hz, stereo, s16, 320 kb/s
11 - Thrice - The Abolition Of Man_sample.mp3
Audio file info Duration: 00:02:45.90, start: 0.000000, bitrate: 319 kb/s
Stream #0.0: Audio: mp3, 44100 Hz, stereo, s16, 320 kb/s
02 - Thrice - Under A Killing Moon_sample.mp3
Audio file info Duration: 00:02:41.77, start: 0.000000, bitrate: 319 kb/s
Stream #0.0: Audio: mp3, 44100 Hz, stereo, s16, 320 kb/s

Contents of download:

91 megabyte in 13 files
Thrice-The Artist in the Ambulance 320 KBPS
  • Thrice - The Artist In The Ambulance/06 - Thrice - Paper Tigers.mp3 (9.2 MB)
  • Thrice - The Artist In The Ambulance/12 - Thrice - Don't Tell And We Won't Ask.mp3 (9.1 MB)
  • Thrice - The Artist In The Ambulance/10 - Thrice - The Artist In The Ambulance.mp3 (8.4 MB)
  • Thrice - The Artist In The Ambulance/07 - Thrice - Hoods On Peregrine.mp3 (8.1 MB)
  • Thrice - The Artist In The Ambulance/08 - Thrice - The Melting Point Of Wax.mp3 (8 MB)
  • Thrice - The Artist In The Ambulance/05 - Thrice - Stare At The Sun.mp3 (7.7 MB)
  • Thrice - The Artist In The Ambulance/03 - Thrice - All That's Left.mp3 (7.6 MB)
  • Thrice - The Artist In The Ambulance/04 - Thrice - Silhouette.mp3 (7.2 MB)
  • Thrice - The Artist In The Ambulance/01 - Thrice - Cold Cash And Colder Hearts.mp3 (6.6 MB)
  • Thrice - The Artist In The Ambulance/09 - Thrice - Blood Clots And Black Holes.mp3 (6.5 MB)
  • Thrice - The Artist In The Ambulance/11 - Thrice - The Abolition Of Man.mp3 (6.3 MB)
  • Thrice - The Artist In The Ambulance/02 - Thrice - Under A Killing Moon.mp3 (6.2 MB)
  • Thrice - The Artist In The Ambulance/Thrice - The Artist In The Ambulance.m3u (1 KB)

Comments:


Add report or comment (250 words maximum)

I'd like:  
Type text from captcha: