Our friends

Joe McElderry - Wide Awake-[2010]-New Album torrent

Torrent info

Date 2011-01-28 12:45:59
Category Music
Hash fbd0c391caf59214273b8687c0361d2dfe1c44e1
Seeds / Leechs 19 / 0 refresh
Full size 83 MB
Tracker http://tracker.openbittorrent.com/scrape
Tags mcelderry wide awake 2010 album
Download – Joe McElderry - Wide Awake-[2010]-New Album Download direct – no client needed

Related torrents

(mp3-var)U2 - Wide Awake in America (1985)(palmbeach)
Eminem - Stay Wide Awake -the relapse FreeHotNewHipHop com mp3
Joe McElderry - Wide Awake-[2010]-New Album
Picture Me Broken - Wide Awake (2010) [mp3@320]

Torrent's content info

20 seconds audio samples

04-Real Late Starter_sample.mp3
Audio file info Duration: 00:03:19.93, start: 0.000000, bitrate: 320 kb/s
Stream #0.0: Audio: mp3, 44100 Hz, 2 channels, s16, 320 kb/s
02-Someone Wake Me Up_sample.mp3
Audio file info Duration: 00:03:28.43, start: 0.000000, bitrate: 320 kb/s
Stream #0.0: Audio: mp3, 44100 Hz, 2 channels, s16, 320 kb/s
06-Feel the Fire_sample.mp3
Audio file info Duration: 00:03:00.79, start: 0.000000, bitrate: 320 kb/s
Stream #0.0: Audio: mp3, 44100 Hz, 2 channels, s16, 320 kb/s
03-Superman_sample.mp3
Audio file info Duration: 00:03:43.13, start: 0.000000, bitrate: 320 kb/s
Stream #0.0: Audio: mp3, 44100 Hz, 2 channels, s16, 320 kb/s

Contents of download:

83 megabyte in 11 files
Joe McElderry - Wide Awake-[2010]-New Album
  • Joe McElderry - Wide Awake-[2010]-New Album/01-Ambitions.mp3 (6.8 MB)
  • Joe McElderry - Wide Awake-[2010]-New Album/02-Someone Wake Me Up.mp3 (8 MB)
  • Joe McElderry - Wide Awake-[2010]-New Album/03-Superman.mp3 (8.5 MB)
  • Joe McElderry - Wide Awake-[2010]-New Album/04-Real Late Starter.mp3 (7.6 MB)
  • Joe McElderry - Wide Awake-[2010]-New Album/05-Until the Stars Run Out.mp3 (7.6 MB)
  • Joe McElderry - Wide Awake-[2010]-New Album/06-Feel the Fire.mp3 (6.9 MB)
  • Joe McElderry - Wide Awake-[2010]-New Album/07-Fahrenheit.mp3 (8.3 MB)
  • Joe McElderry - Wide Awake-[2010]-New Album/08-Wide Awake.mp3 (7.7 MB)
  • Joe McElderry - Wide Awake-[2010]-New Album/09-Smile.mp3 (7.8 MB)
  • Joe McElderry - Wide Awake-[2010]-New Album/10-Love Is War.mp3 (5.6 MB)
  • Joe McElderry - Wide Awake-[2010]-New Album/11-The Climb.mp3 (8.3 MB)

Comments:


Add report or comment (250 words maximum)

I'd like:  
Type text from captcha: